Loading...
Error

Скачать Океаны / Oceans (Жак Перрен, Жак Клюзо) [2009, документальный, драма, семейный, природа, животные, флора, фауна, видовой, BDRemux] [1080p] [Dub] торрент без регистрации

Статистика раздачи
Размер:  23,75 GB   |    Скачан:  28 раз

Полного источника не было: 26 минут

 
 
 
Автор Сообщение

Marsianka

[] 

Информация о фильме
Название: Океаны
Оригинальное: Oceans
Год выхода: 2009
Жанр: документальный, драма, семейный, природа, животные, флора, фауна, видовой
Режиссер: Жак Перрен, Жак Клюзо

О фильме:
Когда мы слышим слово «океан», то понимаем под ним гигантскую массу воды. Других ассоциаций не возникает, что, в принципе, несправедливо. Кино «Океан» призвано устранить этот изъян из нашего сознания, наполнив его новыми сведениями. Создатели этого документального проекта потратили на его осуществление более восьмидесяти миллионов евро и пять лет сложной и трудоёмкой работы, проходившей в самых разных уголках планеты. Зрители смогут побывать во многих прекрасных местах, включая Южную Африку, Антарктиду, полярные регионы Арктики. Искусный труд операторов и мастеров подводной съёмки позволит нам получше познакомиться с обитателями океанских глубин, очень красочной и разнообразной. От создателя «Птиц» и «Микрокосмоса» фильм, не имеющий аналогов по сей день. Подводный мир, живущий в невесомости и гармонии, мир который мы люди лишь изредка можем наблюдать. Знаем ли мы, как именно протекает жизнь в этом удивительном царстве? Нет. Об этом нам поведают «Океаны».



Страна: Франция, Швейцария, Испания, США, ОАЭ
Студия: Galatée Films, Pathé, France 2 Cinéma, France 3 Cinéma, Notro Films, JMH-TSR, France Télévision, Canal+, TPS Star, Participant Media
Продолжительность: 01:43:51
Перевод: Дублированный

Файл
Кодек: MPEG-4 AVC
Качество: BDRemux 1080p | D
Видео: 1920х1080, 30,0 Мбит/с, 24 кадр/с
Звук: DTS-HD MA, 8 каналов, 2776 Кбит/с
Общее
Уникальный идентификатор : 142107643474629636032512730996179320503 (0x6AE8EFC452D36890C3DFF438C399BEB7)
Полное имя : C:UsersDVideosОКЕАНЫ.mkv
Формат : Matroska
Версия формата : Version 4 / Version 2
Размер файла : 23,8 Гбайт
Продолжительность : 1 ч. 43 м.
Режим общего битрейта : Переменный
Общий поток : 32,7 Мбит/сек
Дата кодирования : UTC 2018-01-18 13:21:39
Программа кодирования : mkvmerge v20.0.0 ('I Am The Sun') 64-bit
Библиотека кодирования : libebml v1.3.5 + libmatroska v1.4.8

Видео
Идентификатор : 1
Формат : AVC
Формат/Информация : Advanced Video Codec
Профиль формата : High@L4.1
Настройки формата : CABAC / 4 Ref Frames
Параметр CABAC формата : Да
Параметр RefFrames формата : 4 кадра
Параметр GOP формата : M=3, N=12
Идентификатор кодека : V_MPEG4/ISO/AVC
Продолжительность : 1 ч. 43 м.
Вид битрейта : Переменный
Битрейт : 30,0 Мбит/сек
Максимальный битрейт : 38,0 Мбит/сек
Ширина : 1920 пикселей
Высота : 1080 пикселей
Соотношение сторон : 16:9
Режим частоты кадров : Постоянный
Частота кадров : 23,976 (24000/1001) кадра/сек
Цветовое пространство : YUV
Субдискретизация насыщенности : 4:2:0
Битовая глубина : 8 бит
Тип развёртки : Прогрессивная
Бит/(Пиксели*Кадры) : 0.603
Размер потока : 21,7 Гбайт (92%)
Default : Да
Forced : Нет
Цветовой диапазон : Limited
Основные цвета : BT.709
Характеристики трансфера : BT.709
Коэффициенты матрицы : BT.709

Аудио
Идентификатор : 2
Формат : DTS
Формат/Информация : Digital Theater Systems
Профиль формата : MA / Core
Идентификатор кодека : A_DTS
Продолжительность : 1 ч. 43 м.
Вид битрейта : Переменный / Постоянный
Битрейт : 2776 Кбит/сек / 1509 Кбит/сек
Каналы : 8 каналов / 6 каналов
Расположение каналов : Front: L C R, Side: L R, Back: L R, LFE / Front: L C R, Side: L R, LFE
Частота : 48,0 КГц
Частота кадров : 93,750 кадра/сек (512 SPF)
Битовая глубина : 16 бит
Метод сжатия : Без потерь / Lossy
Размер потока : 2,01 Гбайт (8%)
Язык : Russian
Default : Да
Forced : Нет



Скачать Океаны.Oceans.(Жак.Перрен.Жак.Клюзо).[2009.документальный.драма.семейный.природа.животные.флора.фауна.видовой.BDRemux].[1080p].[Dub].torrent без регистрации
Золото ЗОЛОТАЯ РАЗДАЧА! СКАЧАННОЕ НЕ ЗАСЧИТЫВАЕТСЯ! Золото
Дата: Зарегистрирован   [ Тип: внутренний ] Как тут cкачать?
MAGNET ссылка
MAGNET ссылка


Скачать .torrent

60 KB

Статус: проверено DHT
Скачан: торрент - 28 раз, раздача полностью - 3 раз
Размер: 23,75 GB
Оценка:  - (Голосов: 0)
Поблагодарили: 1
Поделиться ссылкой на эту раздачу с друзьями:
В контактеFacebookОдноклассникиTwitterLivejournalМой МирLiveinternet
 

 
Показать сообщения:    


Вы не можете начинать темы
Вы не можете отвечать на сообщения
Вы не можете редактировать свои сообщения
Вы не можете удалять свои сообщения
Вы не можете голосовать в опросах
Вы не можете прикреплять файлы к сообщениям
Вы можете скачивать файлы