Loading...
Error

Скачать Пила 8 / Jigsaw (Майкл Спириг, Питер Спириг) [2017, ужасы, триллер, криминал, детектив, BDRemux] [1080p] [Dub (лицензия iTunes)]+[AVO (Дольский)]+[Dub Ukr]+[Eng]+[Sub Eng] торрент без регистрации

Статистика раздачи
Размер:  25,78 GB   |    Скачан:  63 раза
Сидов:  1  [  0 KB/s  ]  
 
 
 
Автор Сообщение

МихаНЕзатор

[] 

Название: Пила 8
Оригинальное название: Jigsaw
Год выхода: 2017
Жанр: Триллер, ужасы, криминал, детектив
Режиссер: Майкл Спириг, Питер Спириг

В ролях: Мэтт Пассмор, Тобин Белл, Каллум Кит Ренни, Ханна Андерсон, Кле Беннетт, Лора Вандервурт, Пол Браунштейн, Мандела Ван Пиблз, Бриттани Аллен, Джозиа Блэк

О фильме: В городе обнаруживают несколько тел, обладатели которых встретили определенно не лучший конец. Все улики указывают на одного человека: Джона Крамера. Но как это возможно? Человек, известный как Пила, мертв уже более десяти лет. Неужели все-таки нашелся тот, кто рискнул подобрать мантию жестокого маньяка?



Страна: США, Канада
Студия: Lionsgate, Twisted Pictures
Продолжительность: 01:31:57
Перевод: профессиональный (дублированный), авторский (одноголосый)
Субтитры: английские

Формат: MKV
Качество: BDRemux 1080p
Видео: MPEG-4 AVC / 34227 kbps / 1920x1080 / 23.976 fps
Звук:
Аудио 1: Russian Dolby Digital Audio / 5.1 / 48 kHz / 384 kbps - Дубляж (iTunes)
Аудио 2: Russian DTS Audio / 5.1 / 48 kHz / 1536 kbps - Авторский (Дольский)
Аудио 3: Ukrainian Dolby Digital Audio / 2.0 / 48 kHz / 192 kbps - Дубляж
Аудио 4: English Dolby TrueHD Audio / 7.1 / 48 kHz / 3817 kbps - Оригинал

АНОНСЫ ПОПУЛЯРНЫХ РАЗДАЧ


Торрент обновлён, добавлен авторский и украинский переводы!
Format : Matroska
Format version : Version 2
File size : 25.8 GiB
Duration : 1 h 32 min
Overall bit rate mode : Variable
Overall bit rate : 40.1 Mb/s
Movie name : Jigsaw (2017) BDRemux 1080p
Encoded date : UTC 2018-02-08 19:09:16
Writing application : mkvmerge v4.9.1 ('Ich will') сборка от Jul 11 2011 23:53:15
Writing library : libebml v1.2.1 + libmatroska v1.1.1

Video
ID : 1
Format : AVC
Format/Info : Advanced Video Codec
Format profile : High@L4.1
Format settings, CABAC : Yes
Format settings, RefFrames : 4 frames
Codec ID : V_MPEG4/ISO/AVC
Duration : 1 h 32 min
Bit rate mode : Variable
Maximum bit rate : 37.0 Mb/s
Width : 1 920 pixels
Height : 1 080 pixels
Display aspect ratio : 16:9
Frame rate mode : Constant
Frame rate : 23.976 (24000/1001) FPS
Color space : YUV
Chroma subsampling : 4:2:0
Bit depth : 8 bits
Scan type : Progressive
Title : Пила 8
Language : English
Default : Yes
Forced : No

Audio #1
ID : 2
Format : AC-3
Format/Info : Audio Coding 3
Format settings, Endianness : Big
Codec ID : A_AC3
Duration : 1 h 32 min
Bit rate mode : Constant
Bit rate : 384 kb/s
Channel(s) : 6 channels
Channel positions : Front: L C R, Side: L R, LFE
Sampling rate : 48.0 kHz
Frame rate : 31.250 FPS (1536 SPF)
Bit depth : 16 bits
Compression mode : Lossy
Stream size : 253 MiB (1%)
Title : Дубляж
Language : Russian
Service kind : Complete Main
Default : Yes
Forced : No

Audio #2
ID : 3
Format : DTS
Format/Info : Digital Theater Systems
Mode : 16
Format settings, Endianness : Big
Codec ID : A_DTS
Duration : 1 h 32 min
Bit rate mode : Constant
Bit rate : 1 509 kb/s
Channel(s) : 6 channels
Channel positions : Front: L C R, Side: L R, LFE
Sampling rate : 48.0 kHz
Frame rate : 93.750 FPS (512 SPF)
Bit depth : 24 bits
Compression mode : Lossy
Stream size : 993 MiB (4%)
Title : Дольский
Language : Russian
Default : No
Forced : No

Audio #3
ID : 4
Format : AC-3
Format/Info : Audio Coding 3
Format settings, Endianness : Big
Codec ID : A_AC3
Duration : 1 h 32 min
Bit rate mode : Constant
Bit rate : 192 kb/s
Channel(s) : 2 channels
Channel positions : Front: L R
Sampling rate : 48.0 kHz
Frame rate : 31.250 FPS (1536 SPF)
Bit depth : 16 bits
Compression mode : Lossy
Stream size : 126 MiB (0%)
Title : Дубляж
Language : Ukrainian
Service kind : Complete Main
Default : No
Forced : No

Audio #4
ID : 5
Format : TrueHD
Format profile : TrueHD+Atmos / TrueHD
Codec ID : A_TRUEHD
Bit rate mode : Variable
Maximum bit rate : 6 375 kb/s
Channel(s) : Object Based / 8 channels
Channel positions : Object Based / Front: L C R, Side: L R, Back: L R, LFE
Sampling rate : / 48.0 kHz
Frame rate : 1 200.000 FPS (40 SPF)
Compression mode : Lossless
Delay relative to video : 1 ms
Title : Оригинал
Language : English
Default : No
Forced : No

Text
ID : 6
Format : UTF-8
Codec ID : S_TEXT/UTF8
Codec ID/Info : UTF-8 Plain Text
Title : Full
Language : English
Default : No
Forced : No

Menu
00:00:00.000 : en:Chapter 1
00:03:46.976 : en:Chapter 2
00:10:39.847 : en:Chapter 3
00:14:09.974 : en:Chapter 4
00:22:39.608 : en:Chapter 5
00:29:03.408 : en:Chapter 6
00:35:18.533 : en:Chapter 7
00:40:38.519 : en:Chapter 8
00:43:09.211 : en:Chapter 9
00:46:12.352 : en:Chapter 10
00:52:00.742 : en:Chapter 11
00:56:34.224 : en:Chapter 12
01:04:13.849 : en:Chapter 13
01:09:17.569 : en:Chapter 14
01:13:33.283 : en:Chapter 15
01:23:31.089 : en:Chapter 16



Скачать Пила.8.Jigsaw.(Майкл.Спириг.Питер.Спириг).[2017.ужасы.триллер.криминал.детектив.BDRemux].[1080p].[Dub.(лицензия.iTunes)]+[AVO.(Дольский)]+[Dub.Ukr]+[Eng]+[Sub.Eng].torrent без регистрации
Золото ЗОЛОТАЯ РАЗДАЧА! СКАЧАННОЕ НЕ ЗАСЧИТЫВАЕТСЯ! Золото
Дата: Зарегистрирован   [ Тип: внутренний ] Как тут cкачать?
MAGNET ссылка
MAGNET ссылка


Скачать .torrent

130 KB

Статус: проверено DHT
Скачан: торрент - 63 раз, раздача полностью - 10 раз
Размер: 25,78 GB
Оценка:  5 (Голосов: 1)
Поблагодарили: 5
Поделиться ссылкой на эту раздачу с друзьями:
В контактеFacebookОдноклассникиTwitterLivejournalМой МирLiveinternet
 

 
Показать сообщения:    


Вы не можете начинать темы
Вы не можете отвечать на сообщения
Вы не можете редактировать свои сообщения
Вы не можете удалять свои сообщения
Вы не можете голосовать в опросах
Вы не можете прикреплять файлы к сообщениям
Вы можете скачивать файлы