Loading...
Error

Скачать Через Вселенную / Across the Universe (Джули Тэймор) [2007, мюзикл, фэнтези, драма, мелодрама, BDRip] [1080p] [MVO]+[Оригинал Eng]+[Sub]x3 торрент без регистрации

Статистика раздачи
Размер:  11,54 GB   |    Скачан:  15 раз
Сидов:  13  [  0 KB/s  ]  
 
 
 
Автор Сообщение

Marsianka

[] 

Информация о фильме
Русское название: Через Вселенную
Оригинальное название: Across the Universe
Год выхода: 2007
Жанр: мюзикл, фэнтези, драма, мелодрама
Режиссер: Джули Тэймор
Выпущено: США
Продолжительность: 02:13:18
Перевод: Профессиональный (многоголосый закадровый)
В ролях: Эван Рэйчел Вуд, Джим Стёрджесс, Джо Андерсон, Дана Фукс, Мартин Лютер, Т.В. Карпио, Боно, Джо Кокер, Кэрол Вудс, Спенсер Лифф

Описание
История любви Джуда и Люси, которые встретились и полюбили друг друга в Америке образца 1968 года. Отсюда и последствия: герои не остаются безучастными ни к экспериментам над сознанием, ни к политике, ни к войне во Вьетнаме.
Бурное время затягивает их жизни в настоящий водоворот общественных событий. Фильм сопровождается песнями «Битлз», которые, так или иначе, иллюстрируют все происходящее на экране. Паре предстоит многое пережить, чтобы в конце-концов убедиться в одной непреложной истине: «All you need is love»…



Файл
Качество: BDRip 1080p (исходник Blu-ray Disc)
Контейнер: MKV (расширение файла)
Видео: 1920x800, 11312 Кбит/сек, 23,976 кадр/сек, AVC, x264, High@L4.1, 2.40:1, 0.307 Бит/[Пиксели*Кадры]
Аудио 1: AC-3, 640 Кбит/сек, 6 канала(ов), 48,0 КГц - Многоголосый закадровый / Русский
Аудио 2: AC-3, 448 Кбит/сек, 6 канала(ов), 48,0 КГц - Оригинал / Английский
Субтитры: Русские | Полные, Английские | Полные
Форсированные субтитры: Русские на песни.
Чаптеры (Главы): Есть
Автор Рипа: Группа:

Format : Matroska
Format version : Version 2
File size : 11.5 GiB
Duration : 2 h 13 min
Overall bit rate : 12.4 Mb/s
Movie name : Across.the.Universe.(2007).BDRip.1080p.[envy]
Encoded date : UTC 2018-01-19 13:43:17
Writing application : mkvmerge v5.8.0 ('No Sleep / Pillow') built on Sep 2 2012 15:37:04
Writing library : libebml v1.2.3 + libmatroska v1.3.0

Video
ID : 1
Format : AVC
Format/Info : Advanced Video Codec
Format profile : High@L4.1
Format settings : CABAC / 5 Ref Frames
Format settings, CABAC : Yes
Format settings, ReFrames : 5 frames
Codec ID : V_MPEG4/ISO/AVC
Duration : 2 h 13 min
Bit rate : 11.3 Mb/s
Width : 1 920 pixels
Height : 800 pixels
Display aspect ratio : 2.40:1
Frame rate mode : Constant
Frame rate : 23.976 (24000/1001) FPS
Color space : YUV
Chroma subsampling : 4:2:0
Bit depth : 8 bits
Scan type : Progressive
Bits/(Pixel*Frame) : 0.307
Stream size : 10.3 GiB (89%)
Title : Across.the.Universe.(2007).BDRip.1080p.[envy]
Writing library : x264 core 152 r2851 ba24899
Encoding settings : cabac=1 / ref=5 / deblock=1:-3:-3 / analyse=0x3:0x113 / me=umh / subme=11 / psy=1 / psy_rd=1.00:0.09 / mixed_ref=1 / me_range=48 / chroma_me=1 / trellis=2 / 8x8dct=1 / cqm=0 / deadzone=21,11 / fast_pskip=0 / chroma_qp_offset=-3 / threads=12 / lookahead_threads=1 / sliced_threads=0 / nr=0 / decimate=1 / interlaced=0 / bluray_compat=0 / constrained_intra=0 / bframes=5 / b_pyramid=2 / b_adapt=2 / b_bias=0 / direct=3 / weightb=1 / open_gop=0 / weightp=2 / keyint=240 / keyint_min=23 / scenecut=40 / intra_refresh=0 / rc=2pass / mbtree=0 / bitrate=11312 / ratetol=1.0 / qcomp=0.60 / qpmin=0 / qpmax=69 / qpstep=4 / cplxblur=20.0 / qblur=0.5 / ip_ratio=1.40 / pb_ratio=1.30 / aq=1:0.70
Language : English
Default : Yes
Forced : No

Audio #1
ID : 2
Format : AC-3
Format/Info : Audio Coding 3
Codec ID : A_AC3
Duration : 2 h 13 min
Bit rate mode : Constant
Bit rate : 640 kb/s
Channel(s) : 6 channels
Channel positions : Front: L C R, Side: L R, LFE
Sampling rate : 48.0 kHz
Frame rate : 31.250 FPS (1536 SPF)
Bit depth : 16 bits
Compression mode : Lossy
Stream size : 610 MiB (5%)
Title : MVO
Language : Russian
Service kind : Complete Main
Default : Yes
Forced : No

Audio #2
ID : 3
Format : AC-3
Format/Info : Audio Coding 3
Codec ID : A_AC3
Duration : 2 h 13 min
Bit rate mode : Constant
Bit rate : 448 kb/s
Channel(s) : 6 channels
Channel positions : Front: L C R, Side: L R, LFE
Sampling rate : 48.0 kHz
Frame rate : 31.250 FPS (1536 SPF)
Bit depth : 16 bits
Compression mode : Lossy
Stream size : 427 MiB (4%)
Title : Eng
Language : English
Service kind : Complete Main
Default : No
Forced : No

Text #1
ID : 4
Format : UTF-8
Codec ID : S_TEXT/UTF8
Codec ID/Info : UTF-8 Plain Text
Title : Rus forced
Language : Russian
Default : Yes
Forced : Yes

Text #2
ID : 5
Format : UTF-8
Codec ID : S_TEXT/UTF8
Codec ID/Info : UTF-8 Plain Text
Title : Rus full
Language : Russian
Default : No
Forced : No

Text #3
ID : 6
Format : UTF-8
Codec ID : S_TEXT/UTF8
Codec ID/Info : UTF-8 Plain Text
Title : Eng full
Language : English
Default : No
Forced : No

Menu
00:00:00.000 : :Chapter 01
00:02:20.098 : :Chapter 02
00:04:27.558 : :Chapter 03
00:08:49.237 : :Chapter 04
00:17:39.183 : :Chapter 05
00:20:35.817 : :Chapter 06
00:23:38.375 : :Chapter 07
00:32:37.664 : :Chapter 08
00:36:40.156 : :Chapter 09
00:42:12.196 : :Chapter 10
00:46:49.598 : :Chapter 11
00:53:01.386 : :Chapter 12
00:57:19.185 : :Chapter 13
01:01:17.090 : :Chapter 14
01:09:01.262 : :Chapter 15
01:13:00.918 : :Chapter 16
01:16:14.695 : :Chapter 17
01:20:24.986 : :Chapter 18
01:24:17.594 : :Chapter 19
01:29:31.491 : :Chapter 20
01:34:12.605 : :Chapter 21
01:38:44.877 : :Chapter 22
01:40:31.608 : :Chapter 23
01:45:32.284 : :Chapter 24
01:49:37.696 : :Chapter 25
01:53:41.606 : :Chapter 26
01:55:12.155 : :Chapter 27
01:59:14.605 : :Chapter 28
02:02:19.498 : :Chapter 29
02:05:41.408 : :Chapter 30



Скачать Через.Вселенную.Across.the.Universe.(Джули.Тэймор).[2007.мюзикл.фэнтези.драма.мелодрама.BDRip].[1080p].[MVO]+[Оригинал.Eng]+[Sub]x3.torrent без регистрации
Золото ЗОЛОТАЯ РАЗДАЧА! СКАЧАННОЕ НЕ ЗАСЧИТЫВАЕТСЯ! Золото
Дата: Зарегистрирован   [ Тип: внешний ] Как тут cкачать?
MAGNET ссылка
MAGNET ссылка


Скачать .torrent

30 KB

Статус: проверено DHT
Скачан: торрент - 15 раз, раздача полностью - 1 раз
Размер: 11,54 GB
Оценка:  - (Голосов: 0)
Поблагодарили: 0
Поделиться ссылкой на эту раздачу с друзьями:
В контактеFacebookОдноклассникиTwitterLivejournalМой МирLiveinternet
 

 
Показать сообщения:    


Вы не можете начинать темы
Вы не можете отвечать на сообщения
Вы не можете редактировать свои сообщения
Вы не можете удалять свои сообщения
Вы не можете голосовать в опросах
Вы не можете прикреплять файлы к сообщениям
Вы можете скачивать файлы