Loading...
Error

Скачать Склифосовский (сезон 06) (Юлия Краснова) [2017, драма, мелодрама, медицина, WEB-DLRip] [1080p] торрент без регистрации

Статистика раздачи
Размер:  31,67 GB   |    Скачан:  20 раз
Сидов:  13  [  0 KB/s  ]   Личеров:  3  [  0 KB/s  ]  
 
 
 
Автор Сообщение

МихаНЕзатор

[] 

Информация о фильме
Название: Склифосовский
Год выхода: 2017
Жанр: Драма, мелодрама, медицина
Режиссер: Юлия Краснова

В ролях: Максим Аверин, Мария Куликова, Константин Юшкевич, Евгения Дмитриева, Александр Сирин, Иван Шабалтас, Владимир Жеребцов, Андрей Барило, Анна Якунина, Екатерина Травова, Елена Яковлева, Владимир Довжик, Олег Чернов, Мария Рыщенкова, Дмитрий Жульков, Елена Папанова, Ирина Основина, Валерий Ярёменко, Леонид Громов, Александр Сетейкин, Светлана Закирова, Сергей Климов, Инна Стерлигова, Елена Захарова, Татьяна Аугшкап, Константин Лукич, Сергей Терещук, Олег Билик, Валентин Валл, Мария Чувилина, Константин Новиков, Шухрат Иргашев, Анна Масальская, Иван Агапов, Михаил Руденко

О фильме: Финал пятого сезона сериала прозвучал тревожно – незавершенными, открытыми для домысливания остались практически все сюжетные линии. С драматических событий прошлого сезона берет свое начало новое повествование… Здоровью главного героя Брагина уже ничего не угрожает, но он пребывает в состоянии нервного истощения и в его семейной жизни наметились серьезные проблемы. Не все благополучно и у «молодоженов» Куликовых, «баловню судьбы» Косте светит перспектива провести за решеткой ближайшие 12 лет, а за жизнь Нины после попытки самоубийства врачи еще продолжают бороться... Итак, нас ожидают новые, насыщенные событиями истории из жизни полюбившихся зрителю героев в привычном формате одного из отделений НИИ Скорой помощи им. Склифосовского.

Релиз от:
Silverok

Страна: Россия
Студия: Кинокомпания "Русское"
Продолжительность: 2 х ~ 00:53:00
Перевод: Не требуется

Файл
Кодек: h.264
Качество: WEB-DLRip 1080p
Видео: MPEG-4 AVC, ~ 5120 Кбит/с, 1920x1080, 25,000 кадр/с
Звук: Русский (AC3, 2 ch, 256 Кбит/с)
Субтитры: Нет

АНОНСЫ ПОПУЛЯРНЫХ РАЗДАЧ


Торрент обновлён, добавлена 16-я серия!
General
Unique ID : 223262656917476644060753657618649224352 (0xA7F6D2DA351ECABE953E46EE1BCA94A0)
Complete name : D:uTorrentSklifosovskij.6.sezon.2017.WEB-DLRip.1080pSklifosovskij.(01.iz.16).2017.WEB-DLRip.1080p.MediaClub.mkv
Format : Matroska
Format version : Version 4 / Version 2
File size : 1.97 GiB
Duration : 52 min 38 s
Overall bit rate : 5 360 kb/s
Encoded date : UTC 2018-01-23 09:15:39
Writing application : mkvmerge v17.0.0 ('Be Ur Friend') 64-bit
Writing library : libebml v1.3.5 + libmatroska v1.4.8

Video
ID : 1
Format : AVC
Format/Info : Advanced Video Codec
Format profile : High@L4
Format settings : CABAC / 4 Ref Frames
Format settings, CABAC : Yes
Format settings, RefFrames : 4 frames
Codec ID : V_MPEG4/ISO/AVC
Duration : 52 min 38 s
Bit rate : 5 120 kb/s
Width : 1 920 pixels
Height : 1 080 pixels
Display aspect ratio : 16:9
Frame rate mode : Constant
Frame rate : 25.000 FPS
Color space : YUV
Chroma subsampling : 4:2:0
Bit depth : 8 bits
Scan type : Progressive
Bits/(Pixel*Frame) : 0.099
Stream size : 1.88 GiB (95%)
Title : WEB-DLRip by Silverok
Writing library : x264 core 142
Encoding settings : cabac=1 / ref=3 / deblock=1:0:0 / analyse=0x3:0x113 / me=hex / subme=7 / psy=1 / psy_rd=1.00:0.00 / mixed_ref=1 / me_range=16 / chroma_me=1 / trellis=1 / 8x8dct=1 / cqm=0 / deadzone=21,11 / fast_pskip=1 / chroma_qp_offset=-2 / threads=48 / lookahead_threads=8 / sliced_threads=0 / nr=0 / decimate=1 / interlaced=0 / bluray_compat=0 / constrained_intra=0 / bframes=6 / b_pyramid=2 / b_adapt=1 / b_bias=0 / direct=1 / weightb=1 / open_gop=0 / weightp=2 / keyint=50 / keyint_min=26 / scenecut=0 / intra_refresh=0 / rc_lookahead=40 / rc=2pass / mbtree=1 / bitrate=5120 / ratetol=1.0 / qcomp=0.60 / qpmin=0 / qpmax=69 / qpstep=4 / cplxblur=20.0 / qblur=0.5 / vbv_maxrate=7680 / vbv_bufsize=20480 / nal_hrd=none / filler=0 / ip_ratio=1.40 / aq=1:1.00
Default : Yes
Forced : No

Audio
ID : 2
Format : AC-3
Format/Info : Audio Coding 3
Codec ID : A_AC3
Duration : 52 min 38 s
Bit rate mode : Constant
Bit rate : 256 kb/s
Channel(s) : 2 channels
Channel positions : Front: L R
Sampling rate : 48.0 kHz
Frame rate : 31.250 FPS (1536 SPF)
Bit depth : 16 bits
Compression mode : Lossy
Stream size : 96.4 MiB (5%)
Language : Russian
Service kind : Complete Main
Default : Yes
Forced : No



Скачать Склифосовский.(сезон.06).(Юлия.Краснова).[2017.драма.мелодрама.медицина.WEB-DLRip].[1080p].torrent без регистрации
Золото ЗОЛОТАЯ РАЗДАЧА! СКАЧАННОЕ НЕ ЗАСЧИТЫВАЕТСЯ! Золото
Дата: Зарегистрирован   [ Тип: внешний ] Как тут cкачать?
MAGNET ссылка
MAGNET ссылка


Скачать .torrent

82 KB

Статус: проверено DHT
Скачан: торрент - 20 раз, раздача полностью - 2 раз
Размер: 31,67 GB
Оценка:  - (Голосов: 0)
Поблагодарили: 0
Поделиться ссылкой на эту раздачу с друзьями:
В контактеFacebookОдноклассникиTwitterLivejournalМой МирLiveinternet
 

 
Показать сообщения:    


Вы не можете начинать темы
Вы не можете отвечать на сообщения
Вы не можете редактировать свои сообщения
Вы не можете удалять свои сообщения
Вы не можете голосовать в опросах
Вы не можете прикреплять файлы к сообщениям
Вы можете скачивать файлы