Loading...
Error

Скачать Война волков 2 / Wolf Warrior 2 / Zhan lang 2 (драма, боевик, военный) [2017, драма, боевик, военный, HDRip] [720p] [MVO (GreenРай Studio)] торрент без регистрации

Статистика раздачи
Размер:  6,62 GB   |    Скачан:  62 раза
Сидов:  1  [  0 KB/s  ]  
 
 
 
Автор Сообщение

МихаНЕзатор

[] 

Информация о фильме
Наименование: Война волков 2
Оригинальное наименование: Wolf Warrior 2 / Zhan lang 2
Произведено: Китай
Категория: драма, боевик, военный
Режиссер постановщик: Джеки Ву

В главных ролях: Джеки Ву, Фрэнк Грилло, Селина Джейд, У Ган, Чжан Хань, Юй Цзянь, Юй Нань, Чуньюй Шаньшань, Дин Хайфэн, Олег Прудиус

О фильме: Один из лучших спецназовцев Китая Лэн Фэн был лишен звания и сел в тюрьму на три года за поведение, по мнению руководства, недостойное китайского офицера. Пока наш герой сидел, его невесту убили где-то в Африке, а несостоявшемуся жениху досталась только необычная пуля, извлеченная из тела любимой. Выйдя, Лэн отправляется в Африку и заводит дружбу с пухлым местным пацаном, когда в стране вдруг начинается очередная революция.



Файл
Качество: HDRip 720p
Видео данные: MKV, 1280x534 (2.35:1), 24.000 fps, 6317 Кбит/с
Аудио данные: MP3, 2 ch, 320 Кбит/с
Перевод: Любительский многоголосый (GreenРай Studio)
Продолжительность: 02:03:45

Состав дикторов: Анастасия Гайдаржи, Руслан Чериев, Андрей Данилко
Руководитель проекта и координатор: Евгений Овчаренко
Организатор и координатор: Никита Марков
Пиар менеджер студии: Игорь Обухов
Техническая поддержка: Александр Методий

ВНИМАНИЕ! Присутствует реклама!
General
Unique ID : 251848140986630143394164291446074470145 (0xBD783007A18DFF66B557CD84E42F6F01)
Complete name : D:ВидеоWolf.Warrior.2.2017.P.BDRip.720p.GreenРай Studio.mkv
Format : Matroska
Format version : Version 4 / Version 2
File size : 5.85 GiB
Duration : 2h 3mn
Overall bit rate mode : Variable
Overall bit rate : 6 772 Kbps
Encoded date : UTC 2018-01-23 16:00:52
Writing application : mkvmerge v8.3.0 ('Over the Horizon') 64bit
Writing library : libebml v1.3.1 + libmatroska v1.4.2
DURATION : 02:03:45.491000000
NUMBER_OF_FRAMES : 309395
NUMBER_OF_BYTES : 297016824
_STATISTICS_WRITING_APP : mkvmerge v8.3.0 ('Over the Horizon') 64bit
_STATISTICS_WRITING_DATE_UT : 2018-01-23 16:00:52
_STATISTICS_TAGS : BPS DURATION NUMBER_OF_FRAMES NUMBER_OF_BYTES

Video
ID : 1
Format : AVC
Format/Info : Advanced Video Codec
Format profile : High@L3.1
Format settings, CABAC : Yes
Format settings, ReFrames : 4 frames
Codec ID : V_MPEG4/ISO/AVC
Duration : 2h 3mn
Bit rate : 6 317 Kbps
Width : 1 280 pixels
Height : 544 pixels
Display aspect ratio : 2.35:1
Frame rate mode : Constant
Frame rate : 24.000 fps
Color space : YUV
Chroma subsampling : 4:2:0
Bit depth : 8 bits
Scan type : Progressive
Bits/(Pixel*Frame) : 0.378
Stream size : 5.46 GiB (93%)
Writing library : x264 core 146 r2538 121396c
Encoding settings : cabac=1 / ref=1 / deblock=1:0:0 / analyse=0x3:0x113 / me=hex / subme=2 / psy=1 / psy_rd=1.00:0.00 / mixed_ref=0 / me_range=16 / chroma_me=1 / trellis=0 / 8x8dct=1 / cqm=0 / deadzone=21,11 / fast_pskip=1 / chroma_qp_offset=0 / threads=18 / lookahead_threads=4 / sliced_threads=0 / nr=0 / decimate=1 / interlaced=0 / bluray_compat=0 / constrained_intra=0 / bframes=3 / b_pyramid=2 / b_adapt=1 / b_bias=0 / direct=1 / weightb=1 / open_gop=0 / weightp=1 / keyint=250 / keyint_min=24 / scenecut=40 / intra_refresh=0 / rc_lookahead=10 / rc=crf / mbtree=1 / crf=13.4 / qcomp=0.60 / qpmin=0 / qpmax=69 / qpstep=4 / ip_ratio=1.40 / aq=1:1.00
Default : Yes
Forced : No

Audio
ID : 2
Format : MPEG Audio
Format version : Version 1
Format profile : Layer 3
Mode : Joint stereo
Mode extension : MS Stereo
Codec ID : A_MPEG/L3
Codec ID/Hint : MP3
Duration : 4s 512ms
Bit rate mode : Variable
Bit rate : 320 Kbps
Channel(s) : 2 channels
Sampling rate : 48.0 KHz
Compression mode : Lossy
Stream size : 176 KiB (0%)
Writing library : LAME3.98.2
Default : Yes
Forced : No



Скачать Война.волков.2.Wolf.Warrior.2.Zhan.lang.2.(драма.боевик.военный).[2017.драма.боевик.военный.HDRip].[720p].[MVO.(GreenРай.Studio)].torrent без регистрации
Золото ЗОЛОТАЯ РАЗДАЧА! СКАЧАННОЕ НЕ ЗАСЧИТЫВАЕТСЯ! Золото
Дата: Зарегистрирован   [ Тип: внутренний ] Как тут cкачать?
MAGNET ссылка
MAGNET ссылка


Скачать .torrent

34 KB

Статус: проверено DHT
Скачан: торрент - 62 раз, раздача полностью - 14 раз
Размер: 6,62 GB
Оценка:  - (Голосов: 0)
Поблагодарили: 4
Поделиться ссылкой на эту раздачу с друзьями:
В контактеFacebookОдноклассникиTwitterLivejournalМой МирLiveinternet
 

 
Показать сообщения:    


Вы не можете начинать темы
Вы не можете отвечать на сообщения
Вы не можете редактировать свои сообщения
Вы не можете удалять свои сообщения
Вы не можете голосовать в опросах
Вы не можете прикреплять файлы к сообщениям
Вы можете скачивать файлы