Loading...
Error

Скачать Ангел зла / Evil Angel (Ричард Дачер) [2009, ужасы, триллер, HDRip-AVC] [DVO (НТВ+)]+[Sub Rus] торрент без регистрации

Статистика раздачи
Размер:  744 MB   |    Скачан:  25 раз
Сидов:  1  [  0 KB/s  ]  
 
 
 
Автор Сообщение

Marsianka

[] 

Информация о фильме
Название: Ангел зла
Оригинальное название: Evil Angel
Год выхода: 2009
Жанр: ужасы, триллер
Режиссер: Ричард Дачер
В ролях: Винг Рэймс, Ава Годет, Кристофер Шепард, Ричард Дачер, Барт Джонсон, Мари Уэстбрук, ДеШон Терри, Дж.Дж. Бун, Жак Грэй, Синтия Кэлхун, Лукас Фляйшер, Татьяна Галиндо, Чарльз Халфорд, Леонард Келли-Янг, Мэрили Лесли, Малинда Мани, Эмили Пирсон, Ламонт Стефенс

О фильме :
Когда Лилит, первая жена Адама, ослушалась его, она была изгнана из Эдемского Сада и Адам взял себе в жены другую женщину - Еву. Возмущенная этим Лилит решает мстить детям Адама и Евы до наших дней. Перерождаясь в телах умерших женщин с убийственно сексуальной и соблазнительной внешностью, Лилит, как первая женщина Земли, с гордостью претендует быть первым серийным убийцей в мире.



Страна: США, Main Street Movie Company, Zion Films
Продолжительность: 02:04:02
Перевод: Профессиональный (двуголосый, закадровый) - НТВ+

Файл
Формат: MKV
Качество: HDRip-AVC
Видео: MPEG-4 AVC, 752x320, ~ 763 Кбит/с
Аудио: AAC-LC, 2 ch, ~ 76 Кбит/с
Субтитры: Русские
Общее
Уникальный идентификатор : 244791170405878014913098821229188675478 (0xB82910846C82C1AEB019C8FA4472F796)
Полное имя : D:MOVIESEvil.Angel.2009.ExKinoRay.mkv
Формат : Matroska
Версия формата : Version 4 / Version 2
Размер файла : 744 Мбайт
Продолжительность : 2 ч. 4 м.
Общий поток : 839 Кбит/сек
Дата кодирования : UTC 2018-01-25 05:56:44
Программа кодирования : mkvmerge v15.0.0 ('Duel with the Devil') 64-bit
Библиотека кодирования : libebml v1.3.5 + libmatroska v1.4.5

Видео
Идентификатор : 1
Формат : AVC
Формат/Информация : Advanced Video Codec
Профиль формата : High@L4.1
Параметр CABAC формата : Да
Параметр RefFrames формата : 10 кадров
Идентификатор кодека : V_MPEG4/ISO/AVC
Продолжительность : 2 ч. 4 м.
Битрейт : 763 Кбит/сек
Ширина : 752 пикселя
Высота : 320 пикселей
Соотношение сторон : 2,35:1
Режим частоты кадров : Постоянный
Частота кадров : 23,976 (24000/1001) кадра/сек
Цветовое пространство : YUV
Субдискретизация насыщенности : 4:2:0
Битовая глубина : 8 бит
Тип развёртки : Прогрессивная
Бит/(Пиксели*Кадры) : 0.132
Размер потока : 675 Мбайт (91%)
Библиотека кодирования : x264 core 152 r2851 ba24899
Настройки программы : cabac=1 / ref=10 / deblock=1:-3:-3 / analyse=0x3:0x133 / me=umh / subme=11 / psy=1 / psy_rd=1.00:0.12 / mixed_ref=1 / me_range=32 / chroma_me=1 / trellis=2 / 8x8dct=1 / cqm=0 / deadzone=21,11 / fast_pskip=0 / chroma_qp_offset=-3 / threads=6 / lookahead_threads=1 / sliced_threads=0 / nr=0 / decimate=0 / interlaced=0 / bluray_compat=0 / constrained_intra=0 / bframes=10 / b_pyramid=2 / b_adapt=2 / b_bias=0 / direct=3 / weightb=1 / open_gop=0 / weightp=2 / keyint=240 / keyint_min=23 / scenecut=40 / intra_refresh=0 / rc_lookahead=40 / rc=2pass / mbtree=0 / bitrate=763 / ratetol=1.0 / qcomp=0.60 / qpmin=0 / qpmax=69 / qpstep=4 / cplxblur=20.0 / qblur=0.5 / vbv_maxrate=50000 / vbv_bufsize=62500 / nal_hrd=none / filler=0 / ip_ratio=1.40 / pb_ratio=1.30 / aq=2:1.00
Default : Да
Forced : Нет

Аудио
Идентификатор : 2
Формат : AAC
Формат/Информация : Advanced Audio Codec
Профиль формата : LC
Идентификатор кодека : A_AAC
Продолжительность : 2 ч. 4 м.
Битрейт : 76,0 Кбит/сек
Каналы : 2 канала
Расположение каналов : Front: L R
Частота : 48,0 КГц
Частота кадров : 46,875 кадров/сек (1024 SPF)
Метод сжатия : С потерями
Задержка видео : 9 мс.
Размер потока : 67,4 Мбайт (9%)
Default : Да
Forced : Нет

Текст
Идентификатор : 3
Формат : UTF-8
Идентификатор кодека : S_TEXT/UTF8
Идентификатор кодека/Информация : UTF-8 Plain Text
Продолжительность : 1 ч. 59 м.
Битрейт : 60 бит/сек
ElementCount : 957
Размер потока : 52,8 Кбайт (0%)
Язык : Russian
Default : Нет
Forced : Нет

Меню
00:00:00.000 : :Chapter 01
00:10:46.020 : :Chapter 02
00:21:27.995 : :Chapter 03
00:30:41.005 : :Chapter 04
00:40:09.990 : :Chapter 05
00:51:30.962 : :Chapter 06
01:04:58.978 : :Chapter 07
01:16:25.914 : :Chapter 08
01:27:02.884 : :Chapter 09
01:38:15.889 : :Chapter 10
01:46:24.878 : :Chapter 11
01:56:08.878 : :Chapter 12
Релиз от:



Скачать Ангел.зла.Evil.Angel.(Ричард.Дачер).[2009.ужасы.триллер.HDRip-AVC].[DVO.(НТВ+)]+[Sub.Rus].torrent без регистрации
Золото ЗОЛОТАЯ РАЗДАЧА! СКАЧАННОЕ НЕ ЗАСЧИТЫВАЕТСЯ! Золото
Дата: Зарегистрирован   [ Тип: внутренний ] Как тут cкачать?
MAGNET ссылка
MAGNET ссылка


Скачать .torrent

16 KB

Статус: проверено DHT
Скачан: торрент - 25 раз, раздача полностью - 0 раз
Размер: 744 MB
Оценка:  - (Голосов: 0)
Поблагодарили: 0
Поделиться ссылкой на эту раздачу с друзьями:
В контактеFacebookОдноклассникиTwitterLivejournalМой МирLiveinternet
 

 
Показать сообщения:    


Вы не можете начинать темы
Вы не можете отвечать на сообщения
Вы не можете редактировать свои сообщения
Вы не можете удалять свои сообщения
Вы не можете голосовать в опросах
Вы не можете прикреплять файлы к сообщениям
Вы можете скачивать файлы