Loading...
Error

Скачать Дикая местность / Неукрощённые / The Untamed / La región salvaje (Амат Эскаланте) [2016, ужасы, фантастика, триллер, драма, BDRip] [720p] [MVO (GreenРай Studio)] торрент без регистрации

Статистика раздачи
Размер:  3,12 GB   |    Скачан:  31 раз
Сидов:  1  [  0 KB/s  ]   Личеров:  1  [  0 KB/s  ]  
 
 
 
Автор Сообщение

МихаНЕзатор

[] 

Информация о фильме
Год выпуска 2016
Наименование: Дикая местность / Неукрощённые
Оригинальное наименование: The Untamed / La región salvaje
Произведено: Мексика, Дания, Франция, Германия, Норвегия, Швейцария
Категория: ужасы, фантастика, триллер, драма
Режиссер постановщик: Амат Эскаланте

В главных ролях: Кенни Джонстон, Симона Бусио, Фернандо Корона, Иисус Меза, Рут Рамос, Иден Вильявиченсио

О фильме: Вероника отправляется в путь, чтобы найти место падения метеорита, которое изменило ландшафт местности. Подобно небесному телу, она сама изменит жизнь молодой пары с двумя детьми, которые всеми силами пытаются преодолеть выпавшие на их долю трудности.



Файл
Качество: BDRip 720p
Видео данные: MKV, 1200x720 (5:3), 23.976 fps, 4000 Кбит/с
Аудио данные: AC3, 2 ch, 640 Кбит/с
Перевод: Любительский многоголосый (GreenРай Studio)
Продолжительность: 01:38:43

АНОНСЫ ПОПУЛЯРНЫХ РАЗДАЧ

Состав дикторов: Кристина Филатова, Василий Чупров, Андрей Данилко
Руководитель проекта и координатор: Евгений Овчаренко
Организатор и координатор: Никита Марков
Пиар менеджер студии: Игорь Обухов
Техническая поддержка: Александр Методий

ВНИМАНИЕ! Присутствует реклама!
General
Unique ID : 217794195559145401333252094223217109939 (0xA3D9A2E42BB3CAF7B7FFFB983F7CABB3)
Complete name : D:ВидеоThe.Untamed.P.BDRip.720p.GreenРай Studio.mkv
Format : Matroska
Format version : Version 4 / Version 2
File size : 3.12 GiB
Duration : 1h 38mn
Overall bit rate mode : Constant
Overall bit rate : 4 524 Kbps
Encoded date : UTC 2018-01-29 20:42:30
Writing application : mkvmerge v8.3.0 ('Over the Horizon') 64bit
Writing library : libebml v1.3.1 + libmatroska v1.4.2
DURATION : 01:38:43.072000000
NUMBER_OF_FRAMES : 185096
NUMBER_OF_BYTES : 473845760
_STATISTICS_WRITING_APP : mkvmerge v8.3.0 ('Over the Horizon') 64bit
_STATISTICS_WRITING_DATE_UT : 2018-01-29 20:42:30
_STATISTICS_TAGS : BPS DURATION NUMBER_OF_FRAMES NUMBER_OF_BYTES

Video
ID : 1
Format : AVC
Format/Info : Advanced Video Codec
Format profile : Main@L3.1
Format settings, CABAC : Yes
Format settings, ReFrames : 3 frames
Codec ID : V_MPEG4/ISO/AVC
Duration : 1h 38mn
Bit rate mode : Constant
Bit rate : 3 794 Kbps
Nominal bit rate : 4 000 Kbps
Width : 1 200 pixels
Height : 720 pixels
Display aspect ratio : 5:3
Frame rate mode : Constant
Frame rate : 23.976 fps
Standard : NTSC
Color space : YUV
Chroma subsampling : 4:2:0
Bit depth : 8 bits
Scan type : Progressive
Bits/(Pixel*Frame) : 0.183
Stream size : 2.62 GiB (84%)
Language : English
Default : Yes
Forced : No
Color range : Limited

Audio
ID : 2
Format : AC-3
Format/Info : Audio Coding 3
Mode extension : CM (complete main)
Format settings, Endianness : Big
Codec ID : A_AC3
Duration : 1h 38mn
Bit rate mode : Constant
Bit rate : 640 Kbps
Channel(s) : 2 channels
Channel positions : Front: L R
Sampling rate : 48.0 KHz
Compression mode : Lossy
Stream size : 452 MiB (14%)
Default : Yes
Forced : No



Скачать Дикая.местность.Неукрощённые.The.Untamed.La.región.salvaje.(Амат.Эскаланте).[2016.ужасы.фантастика.триллер.драма.BDRip].[720p].[MVO.(GreenРай.Studio)].torrent без регистрации
Золото ЗОЛОТАЯ РАЗДАЧА! СКАЧАННОЕ НЕ ЗАСЧИТЫВАЕТСЯ! Золото
Дата: Зарегистрирован   [ Тип: внутренний ] Как тут cкачать?
MAGNET ссылка
MAGNET ссылка


Скачать .torrent

17 KB

Статус: проверено DHT
Скачан: торрент - 31 раз, раздача полностью - 28 раз
Размер: 3,12 GB
Оценка:  - (Голосов: 0)
Поблагодарили: 1
Поделиться ссылкой на эту раздачу с друзьями:
В контактеFacebookОдноклассникиTwitterLivejournalМой МирLiveinternet
 

 
Показать сообщения:    


Вы не можете начинать темы
Вы не можете отвечать на сообщения
Вы не можете редактировать свои сообщения
Вы не можете удалять свои сообщения
Вы не можете голосовать в опросах
Вы не можете прикреплять файлы к сообщениям
Вы можете скачивать файлы