Loading...
Error

Скачать По ту сторону / Обратная сторона / Counterpart (Сезон 01) (Алик Сахаров, Мортен Тильдум) [2018, Триллер, научная фантастика, WEB-DL] [720p] [MVO] (AlexFilm) торрент без регистрации

Статистика раздачи
Размер:  9,93 GB   |    Скачан:  109 раз
Сидов:  1  [  0 KB/s  ]  
 
 
 
Автор Сообщение

leon030982

[] 

По ту сторону / Counterpart

Год выпуска: 2018
Страна: США
Жанр: фантастика, триллер, драма
Продолжительность: ~ 01:00:00
Озвучание: Профессиональное (многоголосое закадровое) (AlexFilm)

Режиссеры: Алик Сахаров, Мортен Тильдум

В ролях: Дж.К. Симмонс, Гарри Ллойд, Назанин Бониади, Оливия Уильямс, Сара Серайокко, Ульрих Томсен, Бернхард Форхер, Кеннет Чои и др.

Описание: Говард Силке, незначительный винтик в бюрократической системе, обнаруживает, что агентство, в котором он работает, на самом деле занимается охраной переходов в параллельное измерение.

Релиз:

Перевод: Мисс Джексон, Алиса Галланова
Монтаж и сведение звука: Михаил Шорыгин
Роли озвучивали:
Маргарита Корш
Екатерина Муравицкая
Кирилл Патрино
Константин Федосеев
Дмитрий Лунёв
Михаил Суслов



Качество: WEB-DL 720p
Формат: MKV
Видео: 1280х720 (16:9), 23.976 fps, MPEG-4 AVC ~1900 kbps avg, 0.084 bit/pixel
Аудио Rus: 48 kHz, AC3 Dolby Digital, 3/2 (L,C,R,l,r) + LFE ch, ~384.00 kbps
Аудио Eng: 48 kHz, AC3 Dolby Digital, 3/2 (L,C,R,l,r) + LFE ch, ~384.00 kbps
Субтитры: нет

Добавлена 10-я серия!
Формат : Matroska
Версия формата : Version 4 / Version 2
Размер файла : 1,03 Гбайт
Продолжительность : 55 м. 25 с.
Режим общего битрейта : Переменный
Общий поток : 2673 Кбит/сек
Название фильма : Counterpart 1x01 @ AlexFilm
Дата кодирования : UTC 2018-01-30 00:49:35
Программа кодирования : mkvmerge v7.1.0 ('Good Love') 64bit built on Jul 27 2014 13:06:55
Библиотека кодирования : libebml v1.3.0 + libmatroska v1.4.1

Видео
Идентификатор : 1
Формат : AVC
Формат/Информация : Advanced Video Codec
Профиль формата : High@L3.1
Параметр CABAC формата : Да
Параметр ReFrames формата : 5 кадров
Идентификатор кодека : V_MPEG4/ISO/AVC
Продолжительность : 55 м. 25 с.
Вид битрейта : Переменный
Битрейт : 1852 Кбит/сек
Максимальный битрейт : 4500 Кбит/сек
Ширина : 1280 пикселей
Высота : 720 пикселей
Соотношение сторон : 16:9
Режим частоты кадров : Постоянный
Частота кадров : 23,976 (24000/1001) кадра/сек
Цветовое пространство : YUV
Субдискретизация насыщенности : 4:2:0
Битовая глубина : 8 бит
Тип развёртки : Прогрессивная
Бит/(Пиксели*Кадры) : 0.084
Размер потока : 734 Мбайт (69%)
Язык : English
Default : Да
Forced : Нет
Цветовой диапазон : Limited
Основные цвета : BT.709
Характеристики трансфера : BT.709
Коэффициенты матрицы : BT.709

Аудио #1
Идентификатор : 2
Формат : AC-3
Формат/Информация : Audio Coding 3
Расширение режима : CM (complete main)
Параметр Endianness формата : Big
Идентификатор кодека : A_AC3
Продолжительность : 55 м. 25 с.
Вид битрейта : Постоянный
Битрейт : 384 Кбит/сек
Каналы : 6 каналов
Расположение каналов : Front: L C R, Side: L R, LFE
Частота : 48,0 КГц
Частота кадров : 31,250 кадров/сек (1536 spf)
Метод сжатия : С потерями
Размер потока : 152 Мбайт (14%)
Заголовок : DD5.1 AlexFilm
Язык : Russian
Default : Да
Forced : Нет

Аудио #2
Идентификатор : 3
Формат : AC-3
Формат/Информация : Audio Coding 3
Расширение режима : CM (complete main)
Параметр Endianness формата : Big
Идентификатор кодека : A_AC3
Продолжительность : 55 м. 25 с.
Вид битрейта : Постоянный
Битрейт : 384 Кбит/сек
Каналы : 6 каналов
Расположение каналов : Front: L C R, Side: L R, LFE
Частота : 48,0 КГц
Частота кадров : 31,250 кадров/сек (1536 spf)
Метод сжатия : С потерями
Размер потока : 152 Мбайт (14%)
Заголовок : DD5.1 Original
Язык : English
Default : Нет
Forced : Нет
Внимание! Раздача ведётся путём добавления новых серий; при каждом добавлении создаётся новый торрент. Чтобы начать докачку новой серии, пользователям необходимо сделать следующее:
(1) остановить скачивание,
(2) удалить старый торрент у себя из клиента (старые серии удалять не надо),
(3) скачать новый торрент и запустить его у себя в клиенте вместо старого, при этом указать клиенту путь в старую папку куда и должно происходить скачивание новых серий.
Ваш клиент при этом должен произвести хеширование (проверку) старой папки (если не производит сам - помогите ему сделать это), и будет докачивать только те серии которых у вас ещё нет. Старые серии при этом не удаляются, а продолжают раздаваться!
Eсли вы уже удалили старые серии, то предотвратить повторную закачку старых серий можно, отжав галочку в соответствующих местах при запуске нового торрента. По возможности, желательно не удалять старые серии как можно дольше чтобы релизёр не столько продолжал раздавать старые серии, а смог сконцентрироваться на новых.



Скачать По.ту.сторону.Обратная.сторона.Counterpart.(Сезон.01).(Алик.Сахаров.Мортен.Тильдум).[2018.Триллер.научная.фантастика.WEB-DL].[720p].[MVO].(AlexFilm).torrent без регистрации
Золото ЗОЛОТАЯ РАЗДАЧА! СКАЧАННОЕ НЕ ЗАСЧИТЫВАЕТСЯ! Золото
Дата: Зарегистрирован   [ Тип: внутренний ] Как тут cкачать?
MAGNET ссылка
MAGNET ссылка


Скачать .torrent

26 KB

Статус: проверено DHT
Скачан: торрент - 109 раз, раздача полностью - 44 раз
Размер: 9,93 GB
Оценка:  5 (Голосов: 1)
Поблагодарили: 6
Поделиться ссылкой на эту раздачу с друзьями:
В контактеFacebookОдноклассникиTwitterLivejournalМой МирLiveinternet
 

 
Показать сообщения:    


Вы не можете начинать темы
Вы не можете отвечать на сообщения
Вы не можете редактировать свои сообщения
Вы не можете удалять свои сообщения
Вы не можете голосовать в опросах
Вы не можете прикреплять файлы к сообщениям
Вы можете скачивать файлы