Loading...
Error

Скачать Волшебники из Вэйверли Плэйс в кино / Wizards of Waverly Place: The Movie (Лев Л. Спиро) [2009, фэнтези, драма, комедия, приключения, семейный, WEB-DLRip-AVC] [Dub]+[Оригинал Eng]+[Sub Rus] торрент без регистрации

Статистика раздачи
Размер:  2,18 GB   |    Скачан:  20 раз

Полного источника не было: 26 минут

 
 
 
Автор Сообщение

Marsianka

[] 

«Family vacations can be tricky»

Страна: США
Производство: It's a Laugh Productions

Жанр: фэнтези, драма, комедия, приключения, семейный
Год выпуска: 2009
Продолжительность: 01:38:03

Перевод: Профессиональный (дублированный)
Оригинальная аудиодорожка: английский
Cубтитры: русский

Режиссер: Лев Л. Спиро / Lev L. Spiro

В ролях:
Селена Гомес, Дэвид Генри, Джейк Т. Остин, Дженнифер Стоун, Мария Кэнелс-Баррера, Дэвид ДеЛуис, Стив Валентайн, Ксавьер Торрес, Дженни Элден, Жасмин Каратини...

Описание:
Семья волшебников Руссо решает провести каникулы на Карибах — именно там Джерри и Тереза встретились в первый раз. Алекс расстроена, поскольку она должна сопровождать свою семью в поездке, а это не входит в её планы. Заклинанием она меняет ход событий прошлого, предотвращая первую встречу своих родителей, и ставит под угрозу существование всей своей семьи. Чтобы отменить действие заклинания, Алекс и Джастин отправляются в невероятное путешествие через джунгли. Тем временем, Макс, младший брат Алекс, прикладывает массу усилий, чтобы родители влюбились друг в друга вновь.


Исходник: WEB-DL 1080p
Тип релиза: WEB-DLRip-AVC
Контейнер: MKV

Видео: 1024x576 (16:9), 23,976 fps, H264 ~ 2603 kbps avg, 0.184 bit/pixel
Аудио: 48 kHz, Dolby Digital AC3 2.0, 192 kbps Дублированный
Аудио: 48 kHz, Dolby Digital AC3 2.0, 192 kbps Украинский
Аудио: 48 kHz, Dolby Digital AC3 2.0, 192 kbps Английский
Формат субтитров: SoftSub (srt) Русский
Раздача от:

Общее
Полное имя : Volshebniki.iz.Vyeyverli.Plyeys.v.kino.2009.WEB-DLRip-AVC_[New-team]_by_AVP_Studio.mkv
Формат : Matroska
Версия формата : Version 4 / Version 2
Размер файла : 2,18 Гбайт
Продолжительность : 1 ч. 38 м.
Общий поток : 3181 Кбит/сек
Название фильма : Volshebniki.iz.Vyeyverli.Plyeys.v.kino.2009.WEB-DLRip-AVC_[New-team]_by_AVP_Studio
Дата кодирования : UTC 2018-01-31 07:47:50
Программа кодирования : mkvmerge v17.0.0 ('Be Ur Friend') 64-bit
Библиотека кодирования : libebml v1.3.5 + libmatroska v1.4.8

Видео
Идентификатор : 1
Формат : AVC
Формат/Информация : Advanced Video Codec
Профиль формата : High@L4.1
Настройки формата : CABAC / 10 Ref Frames
Параметр CABAC формата : Да
Параметр RefFrames формата : 10 кадров
Идентификатор кодека : V_MPEG4/ISO/AVC
Продолжительность : 1 ч. 38 м.
Битрейт : 2603 Кбит/сек
Ширина : 1024 пикселя
Высота : 576 пикселей
Соотношение сторон : 16:9
Режим частоты кадров : Постоянный
Частота кадров : 23,976 (24000/1001) кадра/сек
Цветовое пространство : YUV
Субдискретизация насыщенности : 4:2:0
Битовая глубина : 8 бит
Тип развёртки : Прогрессивная
Бит/(Пиксели*Кадры) : 0.184
Размер потока : 1,78 Гбайт (82%)
Заголовок : AVC H264 1024x576
Библиотека кодирования : x264 core 130 r2273 b3065e6
Настройки программы : cabac=1 / ref=10 / deblock=1:-3:-2 / analyse=0x3:0x113 / me=umh / subme=10 / psy=1 / psy_rd=1.00:0.00 / mixed_ref=1 / me_range=32 / chroma_me=1 / trellis=2 / 8x8dct=1 / cqm=0 / deadzone=21,11 / fast_pskip=1 / chroma_qp_offset=-2 / threads=6 / lookahead_threads=1 / sliced_threads=0 / nr=0 / decimate=0 / interlaced=0 / bluray_compat=0 / constrained_intra=0 / bframes=8 / b_pyramid=2 / b_adapt=2 / b_bias=0 / direct=3 / weightb=1 / open_gop=0 / weightp=2 / keyint=240 / keyint_min=24 / scenecut=40 / intra_refresh=0 / rc_lookahead=40 / rc=2pass / mbtree=1 / bitrate=2603 / ratetol=1.0 / qcomp=0.60 / qpmin=0 / qpmax=69 / qpstep=4 / cplxblur=20.0 / qblur=0.5 / ip_ratio=1.40 / aq=1:1.00
Язык : English
Default : Да
Forced : Нет

Аудио #1
Идентификатор : 2
Формат : AC-3
Формат/Информация : Audio Coding 3
Идентификатор кодека : A_AC3
Продолжительность : 1 ч. 38 м.
Вид битрейта : Постоянный
Битрейт : 192 Кбит/сек
Каналы : 2 канала
Расположение каналов : Front: L R
Частота : 48,0 КГц
Частота кадров : 31,250 кадров/сек (1536 SPF)
Битовая глубина : 16 бит
Метод сжатия : С потерями
Размер потока : 135 Мбайт (6%)
Заголовок : AC3 192 стерео
Язык : Russian
Default : Да
Forced : Нет

Аудио #2
Идентификатор : 3
Формат : AC-3
Формат/Информация : Audio Coding 3
Идентификатор кодека : A_AC3
Продолжительность : 1 ч. 38 м.
Вид битрейта : Постоянный
Битрейт : 192 Кбит/сек
Каналы : 2 канала
Расположение каналов : Front: L R
Частота : 48,0 КГц
Частота кадров : 31,250 кадров/сек (1536 SPF)
Битовая глубина : 16 бит
Метод сжатия : С потерями
Размер потока : 135 Мбайт (6%)
Заголовок : AC3 192 стерео
Язык : Ukrainian
Default : Нет
Forced : Нет

Аудио #3
Идентификатор : 4
Формат : AC-3
Формат/Информация : Audio Coding 3
Идентификатор кодека : A_AC3
Продолжительность : 1 ч. 38 м.
Вид битрейта : Постоянный
Битрейт : 192 Кбит/сек
Каналы : 2 канала
Расположение каналов : Front: L R
Частота : 48,0 КГц
Частота кадров : 31,250 кадров/сек (1536 SPF)
Битовая глубина : 16 бит
Метод сжатия : С потерями
Размер потока : 135 Мбайт (6%)
Заголовок : AC3 192 стерео
Язык : English
Default : Нет
Forced : Нет

Текст
Идентификатор : 5
Формат : UTF-8
Идентификатор кодека : S_TEXT/UTF8
Идентификатор кодека/Информация : UTF-8 Plain Text
Продолжительность : 1 ч. 36 м.
Битрейт : 131 бит/сек
ElementCount : 1506
Размер потока : 93,4 Кбайт (0%)
Язык : Russian
Default : Нет
Forced : Нет



Скачать Волшебники.из.Вэйверли.Плэйс.в.кино.Wizards.of.Waverly.Place.The.Movie.(Лев.Л.Спиро).[2009.фэнтези.драма.комедия.приключения.семейный.WEB-DLRip-AVC].[Dub]+[Оригинал.Eng]+[Sub.Rus].torrent без регистрации
Золото ЗОЛОТАЯ РАЗДАЧА! СКАЧАННОЕ НЕ ЗАСЧИТЫВАЕТСЯ! Золото
Дата: Зарегистрирован   [ Тип: внутренний ] Как тут cкачать?
MAGNET ссылка
MAGNET ссылка


Скачать .torrent

12 KB

Статус: проверено DHT
Скачан: торрент - 20 раз, раздача полностью - 2 раз
Размер: 2,18 GB
Оценка:  - (Голосов: 0)
Поблагодарили: 0
Поделиться ссылкой на эту раздачу с друзьями:
В контактеFacebookОдноклассникиTwitterLivejournalМой МирLiveinternet
 

 
Показать сообщения:    


Вы не можете начинать темы
Вы не можете отвечать на сообщения
Вы не можете редактировать свои сообщения
Вы не можете удалять свои сообщения
Вы не можете голосовать в опросах
Вы не можете прикреплять файлы к сообщениям
Вы можете скачивать файлы