Loading...
Error

Скачать Амазония: Инструкция по выживанию / Amazonia (Тьерри Рагоберт) [2013, документальный, приключения, комедия, семейный, фантастика, природа, животные, флора, фауна, видовой, BDRemux] [1080p] [Sub]x2 торрент без регистрации

Статистика раздачи
Размер:  16,08 GB   |    Скачан:  10 раз

Полного источника не было: 22 минуты

 
 
 
Автор Сообщение

Marsianka

[] 

Информация о фильме
Название: Амазония: Инструкция по выживанию
Оригинальное: Amazonia
Год выхода: 2013
Жанр: документальный, приключения, комедия, семейный, фантастика, природа, животные, флора, фауна, видовой
Режиссер: Тьерри Рагоберт

О фильме:
Познавательная и невероятно увлекательная приключенческая картина, снятая в документальном стиле и посвященная удивительному природному богатству Амазонии, на этот раз представленному глазами весьма необычного главного героя. Всё дело в том, что основное действующее лицо фильма – цирковая обезьянка-капуцин Тима, в результате трагического инцидента с самолетом оказавшаяся наедине с незнакомым миром первозданных амазонских джунглей. По иронии судьбы он попадает в естественную для себя среду обитания, о которой не знает ровным счётом ничего. Так начинается его неимоверное путешествие по живописным местам, сопровождаемое бесчисленными открытиями и приобретаемым бесценным опытом. Любознательный малыш принимается осваивать многочисленные жизненные премудрости, хорошо известные «коренным» обитателям диких лесов и абсолютно неизвестные ему, начиная с поисков пищи и заканчивая конфликтами со своими сородичами. И, разумеется, он быстро усвоил, что эти чащи кишат хищниками, которые постоянно охотятся и совсем не прочь полакомиться маленькой обезьянкой. Даже несмотря на то, что все эти тонкости ему приходится постигать самому, он определенно способный ученик, в кратчайшие сроки постигнувший такую сложную, но обязательную науку выживания.



Страна: Франция, Бразилия
Продолжительность: 01:22:05
Перевод: Не требуется

Файл
Кодек: MPEG-4 AVC
Качество: BDRemux 1080p
Видео: 1920х1080, 23,9 Мбит/с, 24 кадра/с
Звук: DTS-HD MA, 6 каналов, 3840 Кбит/с
Субтитры: Русские, итальянские
Общее
Уникальный идентификатор : 216141914030279360862699647738345474245 (0xA29B6B1F547E541288905B901AB4C8C5)
Полное имя : C:Амазония (BDRemux 1080p, 2013).mkv
Формат : Matroska
Версия формата : Version 4 / Version 2
Размер файла : 16,1 Гбайт
Продолжительность : 1 ч. 23 м.
Режим общего битрейта : Переменный
Общий поток : 27,7 Мбит/сек
Название фильма : Amazonia (2013)
Дата кодирования : UTC 2015-01-06 07:04:18
Программа кодирования : mkvmerge v7.5.0 ('Glass Culture') 64bit built on Jan 4 2015 16:48:44
Библиотека кодирования : libebml v1.3.1 + libmatroska v1.4.2
Обложка : Yes
Attachments : cover.jpg

Видео
Идентификатор : 1
Формат : AVC
Формат/Информация : Advanced Video Codec
Профиль формата : High@L4.1
Настройки формата : CABAC / 4 Ref Frames
Параметр CABAC формата : Да
Параметр RefFrames формата : 4 кадра
Параметр GOP формата : M=1, N=12
Идентификатор кодека : V_MPEG4/ISO/AVC
Продолжительность : 1 ч. 23 м.
Вид битрейта : Переменный
Битрейт : 23,9 Мбит/сек
Максимальный битрейт : 29,0 Мбит/сек
Ширина : 1920 пикселей
Высота : 1080 пикселей
Соотношение сторон : 16:9
Режим частоты кадров : Постоянный
Частота кадров : 23,976 (24000/1001) кадра/сек
Цветовое пространство : YUV
Субдискретизация насыщенности : 4:2:0
Битовая глубина : 8 бит
Тип развёртки : Прогрессивная
Бит/(Пиксели*Кадры) : 0.481
Размер потока : 13,9 Гбайт (86%)
Default : Да
Forced : Нет

Аудио
Идентификатор : 2
Формат : DTS
Формат/Информация : Digital Theater Systems
Профиль формата : MA / Core
Идентификатор кодека : A_DTS
Продолжительность : 1 ч. 23 м.
Вид битрейта : Переменный / Постоянный
Битрейт : 3840 Кбит/сек / 1509 Кбит/сек
Каналы : 6 каналов
Расположение каналов : Front: L C R, Side: L R, LFE
Частота : 48,0 КГц
Частота кадров : 93,750 кадра/сек (512 SPF)
Битовая глубина : 24 бит
Метод сжатия : Без потерь / Lossy
Размер потока : 2,20 Гбайт (14%)
Язык : English
Default : Да
Forced : Нет

Текст #1
Идентификатор : 3
Формат : UTF-8
Идентификатор кодека : S_TEXT/UTF8
Идентификатор кодека/Информация : UTF-8 Plain Text
Продолжительность : 1 ч. 0 м.
Битрейт : 10 бит/сек
ElementCount : 72
Размер потока : 4,43 Кбайт (0%)
Язык : Russian
Default : Да
Forced : Нет

Текст #2
Идентификатор : 4
Формат : UTF-8
Идентификатор кодека : S_TEXT/UTF8
Идентификатор кодека/Информация : UTF-8 Plain Text
Продолжительность : 1 ч. 4 м.
Битрейт : 6 бит/сек
ElementCount : 73
Размер потока : 3,02 Кбайт (0%)
Язык : Italian
Default : Нет
Forced : Нет

Меню
00:00:00.000 : en:
00:05:23.489 : en:
00:09:52.967 : en:
00:15:39.480 : en:
00:20:38.278 : en:
00:26:19.160 : en:
00:31:19.085 : en:
00:36:45.494 : en:
00:41:14.930 : en:
00:46:26.533 : en:
00:50:15.220 : en:
00:54:13.541 : en:
01:00:09.355 : en:
01:04:35.872 : en:
01:12:46.904 : en:
01:18:21.029 : en:
01:23:05.689 : en:



Скачать Амазония.Инструкция.по.выживанию.Amazonia.(Тьерри.Рагоберт).[2013.документальный.приключения.комедия.семейный.фантастика.природа.животные.флора.фауна.видовой.BDRemux].[1080p].[Sub]x2.torrent без регистрации
Золото ЗОЛОТАЯ РАЗДАЧА! СКАЧАННОЕ НЕ ЗАСЧИТЫВАЕТСЯ! Золото
Дата: Зарегистрирован   [ Тип: внутренний ] Как тут cкачать?
MAGNET ссылка
MAGNET ссылка


Скачать .torrent

41 KB

Статус: проверено DHT
Скачан: торрент - 10 раз, раздача полностью - 0 раз
Размер: 16,08 GB
Оценка:  - (Голосов: 0)
Поблагодарили: 0
Поделиться ссылкой на эту раздачу с друзьями:
В контактеFacebookОдноклассникиTwitterLivejournalМой МирLiveinternet
 

 
Показать сообщения:    


Вы не можете начинать темы
Вы не можете отвечать на сообщения
Вы не можете редактировать свои сообщения
Вы не можете удалять свои сообщения
Вы не можете голосовать в опросах
Вы не можете прикреплять файлы к сообщениям
Вы можете скачивать файлы