Loading...
Error

Скачать Великая стена / The Great Wall (Чжан Имоу) [2016, фэнтези, боевик, триллер, приключения, UHD BDRemux] [2160p (4K (HDR)] [Dub (лицензия)]+[VO (Е. Солодухин)]+[Eng]+[Sub Rus, Eng] торрент без регистрации

Статистика раздачи
Размер:  51,08 GB   |    Скачан:  27 раз
Сидов:  1  [  0 KB/s  ]  
 
 
 
Автор Сообщение

МихаНЕзатор

[] 

Производство: США, Китай, Гонконг, Австралия, Канада / Legendary Pictures
Жанр: фэнтези, боевик, триллер, приключения
Режиссер: Чжан Имоу
Продюсер: Джон Дж. Джашни, Питер Лоэр, Чарльз Ровен

Актеры: Мэтт Дэймон, Цзин Тянь, Уиллем Дефо, Энди Лау, Педро Паскаль, Чжан Ханьюй, Лухан, Кенни Линь, Эдди Пэн, Хуан Сюань

Описание: Великую стену воздвигли, чтобы оградить Поднебесную от любых угроз, но с таким врагом не сталкивались даже самые отважные ее защитники. Если вторжение не остановить — мир будет уничтожен.



Релиз от: arxivariys

Продолжительность: 01:43:03
Качество: UHD BDRemux (HDR)
Перевод: Дублированный (Лицензия BD EUR), Любительский одноголосый (Е. Солодухин)
Субтитры: Русские (forced, full), английские (forced, full, SDH, SDH-Colored)

Видео: HEVC/H.265, 3840x2160, (16:9), 65,9 Мбит/сек, 23.976 fps
Аудио 1: AC3, 6 ch, 640 kbps - Русский, Дубляж
Аудио 2: AC3, 6 ch, 448 kbps - Русский, Е. Солодухин
Аудио 3: DTS-HD MA, 8 ch, 3952 kbps - Английский
General
Unique ID : 206059452790530035787481068529941635362 (0x9B059B6752AC52A78C7F9152C2166122)
Complete name : Великая стена.2160p.UHD.BluRay.Remux.2160p.mkv
Format : Matroska
Format version : Version 4 / Version 2
File size : 51.1 GiB
Duration : 1 h 43 min
Overall bit rate : 70.9 Mb/s
Encoded date : UTC 2017-12-08 14:47:39
Writing application : mkvmerge v18.0.0 ('Apricity') 64-bit
Writing library : libebml v1.3.5 + libmatroska v1.4.8
Attachments : poster.jpg

Video
ID : 1
Format : HEVC
Format/Info : High Efficiency Video Coding
Format profile : Main 10@L5.1@High
Codec ID : V_MPEGH/ISO/HEVC
Duration : 1 h 43 min
Bit rate : 65.9 Mb/s
Width : 3 840 pixels
Height : 2 160 pixels
Display aspect ratio : 16:9
Frame rate mode : Constant
Frame rate : 23.976 (24000/1001) FPS
Color space : YUV
Chroma subsampling : 4:2:0 (Type 2)
Bit depth : 10 bits
Bits/(Pixel*Frame) : 0.331
Stream size : 47.4 GiB (93%)
Language : English
Default : Yes
Forced : No
Color range : Limited
Color primaries : BT.2020
Transfer characteristics : SMPTE ST 2084
Matrix coefficients : BT.2020 non-constant
Mastering display color primaries : R: x=0.680000 y=0.320000, G: x=0.265000 y=0.690000, B: x=0.150000 y=0.060000, White point: x=0.312700 y=0.329000
Mastering display luminance : min: 0.0000 cd/m2, max: 1000.0000 cd/m2
Maximum Content Light Level : 814 cd/m2
Maximum Frame-Average Light Level : 192 cd/m2

Audio #1
ID : 2
Format : AC-3
Format/Info : Audio Coding 3
Format settings, Endianness : Big
Codec ID : A_AC3
Duration : 1 h 43 min
Bit rate mode : Constant
Bit rate : 640 kb/s
Channel(s) : 6 channels
Channel positions : Front: L C R, Side: L R, LFE
Sampling rate : 48.0 kHz
Frame rate : 31.250 FPS (1536 SPF)
Bit depth : 16 bits
Compression mode : Lossy
Stream size : 472 MiB (1%)
Title : Dub, Blu-Ray
Language : Russian
Service kind : Complete Main
Default : Yes
Forced : No

Audio #2
ID : 3
Format : AC-3
Format/Info : Audio Coding 3
Format settings, Endianness : Big
Codec ID : A_AC3
Duration : 1 h 43 min
Bit rate mode : Constant
Bit rate : 448 kb/s
Channel(s) : 6 channels
Channel positions : Front: L C R, Side: L R, LFE
Sampling rate : 48.0 kHz
Frame rate : 31.250 FPS (1536 SPF)
Bit depth : 16 bits
Compression mode : Lossy
Stream size : 330 MiB (1%)
Title : Е. Солодухин
Language : Russian
Service kind : Complete Main
Default : No
Forced : No

Audio #3
ID : 4
Format : DTS
Format/Info : Digital Theater Systems
Format profile : MA / Core
Mode : 16
Format settings, Endianness : Big
Codec ID : A_DTS
Duration : 1 h 43 min
Bit rate mode : Variable / Constant
Bit rate : 3 952 kb/s / 1 509 kb/s
Channel(s) : 8 channels / 6 channels
Channel positions : Front: L C R, Side: L R, Back: L R, LFE / Front: L C R, Side: L R, LFE
Sampling rate : 48.0 kHz
Frame rate : 93.750 FPS (512 SPF)
Bit depth : 24 bits
Compression mode : Lossless / Lossy
Stream size : 2.85 GiB (6%)
Language : English
Default : No
Forced : No

Text #1
ID : 5
Format : UTF-8
Codec ID : S_TEXT/UTF8
Codec ID/Info : UTF-8 Plain Text
Duration : 1 h 25 min
Bit rate : 1 b/s
Count of elements : 22
Stream size : 958 Bytes (0%)
Title : forced
Language : Russian
Default : Yes
Forced : No

Text #2
ID : 6
Format : UTF-8
Codec ID : S_TEXT/UTF8
Codec ID/Info : UTF-8 Plain Text
Duration : 1 h 30 min
Bit rate : 51 b/s
Count of elements : 829
Stream size : 34.0 KiB (0%)
Title : full
Language : Russian
Default : No
Forced : No

Text #3
ID : 7
Format : UTF-8
Codec ID : S_TEXT/UTF8
Codec ID/Info : UTF-8 Plain Text
Duration : 1 h 25 min
Bit rate : 8 b/s
Count of elements : 246
Stream size : 5.62 KiB (0%)
Title : forced
Language : English
Default : No
Forced : No

Text #4
ID : 8
Format : UTF-8
Codec ID : S_TEXT/UTF8
Codec ID/Info : UTF-8 Plain Text
Duration : 1 h 30 min
Bit rate : 32 b/s
Count of elements : 835
Stream size : 21.2 KiB (0%)
Title : full
Language : English
Default : No
Forced : No

Text #5
ID : 9
Format : UTF-8
Codec ID : S_TEXT/UTF8
Codec ID/Info : UTF-8 Plain Text
Duration : 1 h 30 min
Bit rate : 41 b/s
Count of elements : 1100
Stream size : 27.2 KiB (0%)
Title : SDH
Language : English
Default : No
Forced : No

Text #6
ID : 10
Format : UTF-8
Codec ID : S_TEXT/UTF8
Codec ID/Info : UTF-8 Plain Text
Duration : 1 h 30 min
Bit rate : 53 b/s
Count of elements : 868
Stream size : 35.7 KiB (0%)
Title : SDH-Colored
Language : English
Default : No
Forced : No

Menu
00:00:00.000 : en:Chapter 1
00:05:58.358 : en:Chapter 2
00:11:47.540 : en:Chapter 3
00:16:53.679 : en:Chapter 4
00:20:13.254 : en:Chapter 5
00:25:11.009 : en:Chapter 6
00:28:55.317 : en:Chapter 7
00:33:57.744 : en:Chapter 8
00:37:54.147 : en:Chapter 9
00:42:42.935 : en:Chapter 10
00:46:18.943 : en:Chapter 11
00:50:27.691 : en:Chapter 12
00:56:46.069 : en:Chapter 13
01:01:58.048 : en:Chapter 14
01:07:12.820 : en:Chapter 15
01:12:08.533 : en:Chapter 16
01:18:20.863 : en:Chapter 17
01:23:25.083 : en:Chapter 18
01:27:26.158 : en:Chapter 19
01:31:14.386 : en:Chapter 20



Скачать Великая.стена.The.Great.Wall.(Чжан.Имоу).[2016.фэнтези.боевик.триллер.приключения.UHD.BDRemux].[2160p.(4K.(HDR)].[Dub.(лицензия)]+[VO.(Е.Солодухин)]+[Eng]+[Sub.Rus.Eng].torrent без регистрации
Золото ЗОЛОТАЯ РАЗДАЧА! СКАЧАННОЕ НЕ ЗАСЧИТЫВАЕТСЯ! Золото
Дата: Зарегистрирован   [ Тип: внутренний ] Как тут cкачать?
MAGNET ссылка
MAGNET ссылка


Скачать .torrent

129 KB

Статус: проверено DHT
Скачан: торрент - 27 раз, раздача полностью - 18 раз
Размер: 51,08 GB
Оценка:  - (Голосов: 0)
Поблагодарили: 1
Поделиться ссылкой на эту раздачу с друзьями:
В контактеFacebookОдноклассникиTwitterLivejournalМой МирLiveinternet
 

 
Показать сообщения:    


Вы не можете начинать темы
Вы не можете отвечать на сообщения
Вы не можете редактировать свои сообщения
Вы не можете удалять свои сообщения
Вы не можете голосовать в опросах
Вы не можете прикреплять файлы к сообщениям
Вы можете скачивать файлы