Loading...
Error

Скачать Венецианский купец / The Merchant of Venice (Майкл Рэдфорд) [2004, драма, мелодрама, BDRip-AVC] [DVO R5]+[Sub Rus, Eng]x2 торрент без регистрации

Статистика раздачи
Размер:  2,18 GB   |    Скачан:  11 раз
Сидов:  1  [  0 KB/s  ]  
 
 
 
Автор Сообщение

Marsianka

[] 

Информация о фильме
Название: Венецианский купец
Оригинальное название: The Merchant of Venice
Год выхода: 2004
Жанр: драма, мелодрама
Режиссер: Майкл Рэдфорд
В ролях: Аль Пачино, Джереми Айронс, Джозеф Файнс, Линн Коллинс, Зулейха Робинсон, Крис Маршалл, Чарли Кокс, Хезер Голденхерш, Макензи Крук, Джон Сешнс

О фильме:
Действие фильма происходит в Венеции, жители которой жизнерадостные, беспечные, щедрые люди. Они недолюбливают и высмеивают иноверца Шейлока — угрюмого, алчного ростовщика, считающего каждую копейку. Шейлок отвечает им лютой ненавистью.

Конфликт обостряется до того, что кровопролитие кажется неминуемым. Но тут вмешивается созидающая сила женской любви, которая смело противостоит мужским амбициям и побеждает!



Выпущено: Великобритания, Люксембург, Италия | 39 McLaren St. Sydney, Avenue Pictures Productions, Dania Film, Delux Productions, Film Fund Luxembourg, Immagine e Cinema, Istituto Luce, Movision, Navidi-Wilde Productions Ltd., Rough Diamond Productions, Spice Factory Ltd., UK Film Council
Продолжительность: 02:11:43
Перевод: Профессиональный (двухголосый, закадровый) |R5|
Субтитры: Русские, Английские.

Файл
Формат: MKV
Качество: BDRip-AVC [BD-Remux 1080p]
Видео: 1052x444; 23.976 fps; ~1918 kbps; 0.171 bit/pixel
Аудио: AC3; 448 Kbps; 6 channels; 48 KHz
x264 info: frame I:1241 Avg QP:15.94 size: 60859
x264 info: frame P:35681 Avg QP:18.82 size: 20273
x264 info: frame B:152582 Avg QP:20.50 size: 7174
x264 info: consecutive B-frames: 1.2% 1.3% 4.6% 11.0% 13.0% 53.4% 6.1% 3.6% 2.2% 1.4% 0.6% 1.1% 0.6%

General
Unique ID : 333935801202506012902494841141776325220 (0xFB39B226C1CAFFD77AC9FAB34FAB9A64)
Complete name : F:FILMSВенецианский купец_2004_BDRIP-AVC_[-=DoMiNo=-].mkv
Format : Matroska
Format version : Version 4 / Version 2
File size : 2.18 GiB
Duration : 2 h 11 min
Overall bit rate : 2 368 kb/s
Movie name : Венецианский купец
Deion : Действие фильма происходит в Венеции, жители которой жизнерадостные, беспечные, щедрые люди. Они недолюбливают и высмеивают иноверца Шейлока — угрюмого, алчного ростовщика, считающего каждую копейку. Шейлок отвечает им лютой ненавистью. / / Конфликт обостряется до того, что кровопролитие кажется неминуемым. Но тут вмешивается созидающая сила женской любви, которая смело противостоит мужским амбициям и побеждает!
Writing application : XviD4PSP 7.0.441 DAILY
Writing library : Lavf57.71.100
ErrorDetectionType : Per level 1
Attachments : poster.jpg
ACTORS : Аль Пачино, Джереми Айронс, Джозеф Файнс, Линн Коллинс, Зулейха Робинсон, Крис Маршалл, Чарли Кокс, Хезер Голденхерш, Макензи Крук, Джон Сешнс, Грегор Фишер, Рон Кук, Аллан Кордунер, Антон Роджерс, Дэвид Хэрвуд, Антонио Хиль-Мартинес, Аль Уивер, Норберт Конн, Марк Маес, Жан-Франсуа Вулф, Питер Рименс, Стефан Козьяк, Том Лик, Жюль Вернер, Тони Шина, Джулиан Нест, Стефан Фрагили, Пол Рокенброд
COMPOSER : Жослин Пук
COUNTRY : Великобритания, Люксембург, Италия
DATE : 2004
DIRECTOR : Майкл Рэдфорд
GENRE : драма, мелодрама
HD_VIDEO : 1
IMDB_RATING : 7.10
ITUNEXTC : mpaa|R|400|
Language : und
MEDIA_TYPE : 9
ORIGINAL_TITLE : The Merchant of Venice
PRODUCER : Кэри Брокау, Барри Навиди, Джейсон Питти, Андреас Байора, Боб Беллион, Майкл Кауэн, Джимми Де Брэбэнт, Эдвиж Фенек, Найджел Голдсак, Гари Хэмилтон, Майкл Хаммер, Андреа Иерволино, Питер Джеймс, Роберт Джонс, Диего Лореггиан, Пит Магги, Алекс Маршалл, Лучано Мартино, Боб Порталь, Жан-Клод Шлим, Джеймс Симпсон, Джулия Верден, Клив Валдрон, Пол Уорд, Манфред Вильде, Роберто Альмаджия, Irene Masiello
RATING : 7.362
WRITER : Майкл Рэдфорд, Уильям Шекспир

Video
ID : 1
Format : AVC
Format/Info : Advanced Video Codec
Format profile : High@L4.1
Format settings : CABAC / 11 Ref Frames
Format settings, CABAC : Yes
Format settings, ReFrames : 11 frames
Codec ID : V_MPEG4/ISO/AVC
Duration : 2 h 11 min
Bit rate : 1 918 kb/s
Width : 1 052 pixels
Height : 444 pixels
Display aspect ratio : 2.35:1
Frame rate mode : Constant
Frame rate : 23.976 (24000/1001) FPS
Color space : YUV
Chroma subsampling : 4:2:0
Bit depth : 8 bits
Scan type : Progressive
Bits/(Pixel*Frame) : 0.171
Stream size : 1.72 GiB (79%)
Title : RIP_BY_-=DoMiNo=-
Writing library : x264 core 155 r2901M 7d0ff22
Encoding settings : cabac=1 / ref=11 / deblock=1:-3:-3 / analyse=0x3:0x133 / me=umh / subme=11 / psy=1 / psy_rd=1.00:0.15 / mixed_ref=1 / me_range=56 / chroma_me=1 / trellis=2 / 8x8dct=1 / cqm=0 / deadzone=21,11 / fast_pskip=1 / chroma_qp_offset=-3 / threads=5 / lookahead_threads=1 / sliced_threads=0 / nr=0 / decimate=1 / interlaced=0 / bluray_compat=0 / constrained_intra=0 / bframes=12 / b_pyramid=2 / b_adapt=2 / b_bias=0 / direct=3 / weightb=1 / open_gop=0 / weightp=2 / keyint=240 / keyint_min=24 / scenecut=40 / intra_refresh=0 / rc_lookahead=60 / rc=2pass / mbtree=1 / bitrate=1918 / ratetol=1.0 / qcomp=0.70 / qpmin=0 / qpmax=69 / qpstep=4 / cplxblur=20.0 / qblur=0.5 / ip_ratio=1.40 / aq=1:1.00
Default : Yes
Forced : No

Audio
ID : 2
Format : AC-3
Format/Info : Audio Coding 3
Codec ID : A_AC3
Duration : 2 h 11 min
Bit rate mode : Constant
Bit rate : 448 kb/s
Channel(s) : 6 channels
Channel positions : Front: L C R, Side: L R, LFE
Sampling rate : 48.0 kHz
Frame rate : 31.250 FPS (1536 SPF)
Bit depth : 16 bits
Compression mode : Lossy
Stream size : 422 MiB (19%)
Title : MVO_R5
Language : Russian
Service kind : Complete Main
Default : Yes
Forced : No

Text #1
ID : 3
Format : UTF-8
Codec ID : S_TEXT/UTF8
Codec ID/Info : UTF-8 Plain Text
Title : RUS_ful
Language : Russian
Default : Yes
Forced : No

Text #2
ID : 4
Format : UTF-8
Codec ID : S_TEXT/UTF8
Codec ID/Info : UTF-8 Plain Text
Title : ENG
Language : English
Default : No
Forced : No

Menu
00:00:00.000 : :Глава 1
00:06:35.353 : :Глава 2
00:12:26.954 : :Глава 3
00:18:52.673 : :Глава 4
00:25:48.421 : :Глава 5
00:30:40.213 : :Глава 6
00:39:35.748 : :Глава 7
00:43:37.156 : :Глава 8
00:50:27.357 : :Глава 9
00:58:57.242 : :Глава 10
01:06:30.111 : :Глава 11
01:12:57.247 : :Глава 12
01:20:24.820 : :Глава 13
01:23:46.062 : :Глава 14
01:31:42.705 : :Глава 15
01:38:51.008 : :Глава 16
01:43:59.316 : :Глава 17
01:49:59.342 : :Глава 18
01:55:17.702 : :Глава 19
02:05:33.025 : :Глава 20



Скачать Венецианский.купец.The.Merchant.of.Venice.(Майкл.Рэдфорд).[2004.драма.мелодрама.BDRip-AVC].[DVO.R5]+[Sub.Rus.Eng]x2.torrent без регистрации
Золото ЗОЛОТАЯ РАЗДАЧА! СКАЧАННОЕ НЕ ЗАСЧИТЫВАЕТСЯ! Золото
Дата: Зарегистрирован   [ Тип: внутренний ] Как тут cкачать?
MAGNET ссылка
MAGNET ссылка


Скачать .torrent

12 KB

Статус: проверено DHT
Скачан: торрент - 11 раз, раздача полностью - 0 раз
Размер: 2,18 GB
Оценка:  - (Голосов: 0)
Поблагодарили: 0
Поделиться ссылкой на эту раздачу с друзьями:
В контактеFacebookОдноклассникиTwitterLivejournalМой МирLiveinternet
 

 
Показать сообщения:    


Вы не можете начинать темы
Вы не можете отвечать на сообщения
Вы не можете редактировать свои сообщения
Вы не можете удалять свои сообщения
Вы не можете голосовать в опросах
Вы не можете прикреплять файлы к сообщениям
Вы можете скачивать файлы