Loading...
Error

Скачать Секретное досье / The Post (Стивен Спилберг) [2017, триллер, драма, биография, история, BDRip] [720p] [MVO (HDrezka Studio)]+[Eng]+[Sub Sub Rus, Eng] торрент без регистрации

Статистика раздачи
Размер:  7,41 GB   |    Скачан:  123 раза
Сидов:  1  [  0 KB/s  ]  
 
 
 
Автор Сообщение

МихаНЕзатор

[] 

Информация о фильме
Название: Секретное досье
Оригинальное название: The Post
Год выхода: 2017
Жанр: Триллер, драма, биография, история
Режиссер: Стивен Спилберг

В ролях: Мэрил Стрип, Том Хэнкс, Сара Полсон, Боб Оденкёрк, Трэйси Леттс, Брэдли Уитфорд, Брюс Гринвуд, Мэттью Рис, Элисон Бри, Кэрри Кун



О фильме: История Кэтрин Грэм, первой женщины-издателя газеты «Вашингтон пост», и редактора Бена Брэдли. Они вступают в гонку с «Нью-Йорк таймс» за право пролить свет на государственные тайны, скрывавшиеся более 30 лет. Журналистам придется преодолеть свои разногласия и рискнуть карьерой и свободой, чтобы мир узнал правду.

Страна: США
Студия: Amblin Entertainment, DreamWorks SKG
Продолжительность: 01:55:58
Перевод: Любительский многоголосый | HDrezka Studio

Качество: BDRip 720p
Видео: MPEG-4 AVC, 1280x692, 5500 Kbit/s, 23.976 fps
Звук:
Аудио #01: 48 kHz, AC3, 5.1, 640 Kbps | HDrezka Studio | RUS |
Аудио #02: 48 kHz, DTS, 5.1, 1510 Kbps | HDrezka Studio | RUS |
Аудио #03: 48 kHz, DTS, 5.1, 1510 Kbps | Оригинал | ENG |
Субтитры: Русские (full), английские

Торрент обновлён, улучшен видеоряд и звук, заменён перевод!
General
Unique ID : 25513706571399724659946342078532016283 (0x1331C2DA9554A1BB3EA95F02ACD3D89B)
Complete name : C:Video111The.Post.2017.BDRip.720p.ExKinoRay.mkv
Format : Matroska
Format version : Version 4 / Version 2
File size : 7.41 GiB
Duration : 1 h 55 min
Overall bit rate : 9 151 kb/s
Movie name : The Post 2017 from ExKinoRay
Encoded date : UTC 2018-04-04 06:51:20
Writing application : mkvmerge v22.0.0 ('At The End Of The World') 64-bit
Writing library : libebml v1.3.5 + libmatroska v1.4.8

Video
ID : 1
Format : AVC
Format/Info : Advanced Video Codec
Format profile : High@L4.1
Format settings : CABAC / 9 Ref Frames
Format settings, CABAC : Yes
Format settings, ReFrames : 9 frames
Codec ID : V_MPEG4/ISO/AVC
Duration : 1 h 55 min
Bit rate : 5 500 kb/s
Width : 1 280 pixels
Height : 692 pixels
Display aspect ratio : 1.85:1
Frame rate mode : Constant
Frame rate : 23.976 (24000/1001) FPS
Color space : YUV
Chroma subsampling : 4:2:0
Bit depth : 8 bits
Scan type : Progressive
Bits/(Pixel*Frame) : 0.259
Stream size : 4.45 GiB (60%)
Writing library : x264 core 155 r2901 7d0ff22
Encoding settings : cabac=1 / ref=9 / deblock=1:-3:-3 / analyse=0x3:0x113 / me=umh / subme=10 / psy=1 / psy_rd=1.05:0.10 / mixed_ref=1 / me_range=32 / chroma_me=1 / trellis=2 / 8x8dct=1 / cqm=0 / deadzone=21,11 / fast_pskip=0 / chroma_qp_offset=-2 / threads=12 / lookahead_threads=1 / sliced_threads=0 / nr=0 / decimate=1 / interlaced=0 / bluray_compat=0 / constrained_intra=0 / bframes=6 / b_pyramid=2 / b_adapt=2 / b_bias=0 / direct=3 / weightb=1 / open_gop=0 / weightp=2 / keyint=250 / keyint_min=23 / scenecut=40 / intra_refresh=0 / rc=2pass / mbtree=0 / bitrate=5500 / ratetol=1.0 / qcomp=0.70 / qpmin=0 / qpmax=69 / qpstep=4 / cplxblur=20.0 / qblur=0.5 / ip_ratio=1.40 / pb_ratio=1.30 / aq=3:1.00
Language : English
Default : Yes
Forced : No

Audio #1
ID : 2
Format : AC-3
Format/Info : Audio Coding 3
Codec ID : A_AC3
Duration : 1 h 55 min
Bit rate mode : Constant
Bit rate : 640 kb/s
Channel(s) : 6 channels
Channel positions : Front: L C R, Side: L R, LFE
Sampling rate : 48.0 kHz
Frame rate : 31.250 FPS (1536 SPF)
Bit depth : 16 bits
Compression mode : Lossy
Stream size : 531 MiB (7%)
Title : MVO [HDrezka Studio]
Language : Russian
Service kind : Complete Main
Default : Yes
Forced : Yes

Audio #2
ID : 3
Format : DTS
Format/Info : Digital Theater Systems
Codec ID : A_DTS
Duration : 1 h 55 min
Bit rate mode : Constant
Bit rate : 1 510 kb/s
Channel(s) : 6 channels
Channel positions : Front: L C R, Side: L R, LFE
Sampling rate : 48.0 kHz
Frame rate : 93.750 FPS (512 SPF)
Bit depth : 24 bits
Compression mode : Lossy
Stream size : 1.22 GiB (16%)
Title : MVO [HDrezka Studio]
Language : Russian
Default : No
Forced : No

Audio #3
ID : 4
Format : DTS
Format/Info : Digital Theater Systems
Format profile : ES Matrix / Core
Codec ID : A_DTS
Duration : 1 h 55 min
Bit rate mode : Constant
Bit rate : 1 509 kb/s
Channel(s) : 7 channels / 6 channels
Channel positions : Front: L C R, Side: L R, Back: C, LFE / Front: L C R, Side: L R, LFE
Sampling rate : 48.0 kHz
Frame rate : 93.750 FPS (512 SPF)
Bit depth : 24 bits
Compression mode : Lossy
Stream size : 1.22 GiB (16%)
Title : Original
Language : English
Default : No
Forced : No

Text #1
ID : 5
Format : UTF-8
Codec ID : S_TEXT/UTF8
Codec ID/Info : UTF-8 Plain Text
Duration : 1 h 49 min
Bit rate : 139 b/s
Count of elements : 1977
Stream size : 112 KiB (0%)
Title : Full
Language : Russian
Default : No
Forced : No

Text #2
ID : 6
Format : UTF-8
Codec ID : S_TEXT/UTF8
Codec ID/Info : UTF-8 Plain Text
Duration : 1 h 48 min
Bit rate : 88 b/s
Count of elements : 2170
Stream size : 69.9 KiB (0%)
Title : Full
Language : English
Default : No
Forced : No

Text #3
ID : 7
Format : UTF-8
Codec ID : S_TEXT/UTF8
Codec ID/Info : UTF-8 Plain Text
Duration : 1 h 48 min
Bit rate : 93 b/s
Count of elements : 2284
Stream size : 74.1 KiB (0%)
Title : SDH
Language : English
Default : No
Forced : No

Menu
00:00:00.000 : en:00:00:00.000
00:05:01.927 : en:00:05:01.927
00:10:08.733 : en:00:10:08.733
00:12:32.794 : en:00:12:32.794
00:16:22.398 : en:00:16:22.398
00:19:19.617 : en:00:19:19.617
00:24:53.325 : en:00:24:53.325
00:30:23.989 : en:00:30:23.989
00:34:51.673 : en:00:34:51.673
00:39:08.680 : en:00:39:08.680
00:43:25.812 : en:00:43:25.812
00:48:20.564 : en:00:48:20.564
00:54:38.692 : en:00:54:38.692
00:59:39.785 : en:00:59:39.785
01:03:49.117 : en:01:03:49.117
01:09:59.570 : en:01:09:59.570
01:14:04.857 : en:01:14:04.857
01:20:20.274 : en:01:20:20.274
01:24:30.732 : en:01:24:30.732
01:30:22.667 : en:01:30:22.667
01:35:23.760 : en:01:35:23.760
01:38:46.546 : en:01:38:46.546
01:43:07.723 : en:01:43:07.723
01:49:27.853 : en:01:49:27.853



Скачать Секретное.досье.The.Post.(Стивен.Спилберг).[2017.триллер.драма.биография.история.BDRip].[720p].[MVO.(HDrezka.Studio)]+[Eng]+[Sub.Sub.Rus.Eng].torrent без регистрации
Золото ЗОЛОТАЯ РАЗДАЧА! СКАЧАННОЕ НЕ ЗАСЧИТЫВАЕТСЯ! Золото
Дата: Зарегистрирован   [ Тип: внутренний ] Как тут cкачать?
MAGNET ссылка
MAGNET ссылка


Скачать .torrent

38 KB

Статус: проверено DHT
Скачан: торрент - 123 раз, раздача полностью - 70 раз
Размер: 7,41 GB
Оценка:  - (Голосов: 0)
Поблагодарили: 5
Поделиться ссылкой на эту раздачу с друзьями:
В контактеFacebookОдноклассникиTwitterLivejournalМой МирLiveinternet
 

 
Показать сообщения:    


Вы не можете начинать темы
Вы не можете отвечать на сообщения
Вы не можете редактировать свои сообщения
Вы не можете удалять свои сообщения
Вы не можете голосовать в опросах
Вы не можете прикреплять файлы к сообщениям
Вы можете скачивать файлы