Loading...
Error

Скачать Земля: Один потрясающий день / Earth: One Amazing Day (Ричард Дэйл, Фань Лисинь, Питер Веббер) [2017, документальный, научно-популярный, семейный, BDRip] [720p] [Sub Rus, Eng]x2 торрент без регистрации

Статистика раздачи
Размер:  6,29 GB   |    Скачан:  27 раз
Сидов:  1  [  0 KB/s  ]  
 
 
 
Автор Сообщение

Marsianka

[] 



Страна: Великобритания
Производство/телеканал: Earth Film Productions
Режиссер: Ричард Дэйл, Фань Лисинь, Питер Веббер
Жанр: документальный, научно-популярный, семейный
Продолжительность: 01:33:47
Год выпуска: 2017
Перевод: Субтитры by [S1LveR]
Субтитры: русские, английские

Описание:
Фильм-путешествие, которое раскрывает удивительную силу природы. В течение одного дня сюжет следует за солнцем — от высочайших гор, через отдаленные острова к экзотическим джунглям.
С помощью новейших технологий фильм знакомит зрителей с колоритными животными и напоминает: каждый день в мире происходит больше чудес, чем вы можете себе представить.

Продолжение серии фильмов:
Земля / Earth (2007)
Океаны / Océans (2009)

Качество видео: BDRip 720p
Формат файла: mkv
Видео: кодек: AVC, размер кадра: 1280x720, битрейт: 8768 кб/с
Аудио: язык: английский, аудиокодек: AC3 5.1, битрейт аудио: 640 кб/с
General
Unique ID : 251043252690928447413864280418011484669 (0xBCDD2BF9140AB4D09705AA50BB9A91FD)
Complete name : C:UsersshuriVideosEarth.One.Amazing.Day.2017.Sub.BDRip.720p.by.Александр14Earth.One.Amazing.Day.2017.Sub.BDRip.720p.by.Александр14.mkv
Format : Matroska
Format version : Version 4 / Version 2
File size : 6.29 GiB
Duration : 1 h 33 min
Overall bit rate : 9 599 kb/s
Movie name : Earth.One.Amazing.Day.2017.720p.BluRay.x264.DD5.1-HDC
Encoded date : UTC 2018-01-26 13:28:15
Writing application : mkvmerge v6.1.0 ('Old Devil') built on Mar 4 2013 09:10:42
Writing library : libebml v1.3.0 + libmatroska v1.4.0
Cover : Yes
Attachments : small_cover.jpg / small_cover_land.jpg / cover.jpg / cover_land.jpg

Video
ID : 1
Format : AVC
Format/Info : Advanced Video Codec
Format profile : High@L4.1
Format settings, CABAC : Yes
Format settings, ReFrames : 9 frames
Codec ID : V_MPEG4/ISO/AVC
Duration : 1 h 33 min
Bit rate : 8 768 kb/s
Width : 1 280 pixels
Height : 720 pixels
Display aspect ratio : 16:9
Frame rate mode : Constant
Frame rate : 23.976 (24000/1001) FPS
Color space : YUV
Chroma subsampling : 4:2:0
Bit depth : 8 bits
Scan type : Progressive
Bits/(Pixel*Frame) : 0.397
Stream size : 5.74 GiB (91%)
Title : Earth.One.Amazing.Day.2017.720p.BluRay.x264.DD5.1-HDC
Writing library : x264 core 148 r2665kMod a01e339
Encoding settings : cabac=1 / ref=9 / deblock=1:-3:-3 / analyse=0x3:0x133 / me=umh / subme=11 / psy=1 / fade_compensate=0.00 / psy_rd=1.00:0.00 / mixed_ref=1 / me_range=48 / chroma_me=1 / trellis=2 / 8x8dct=1 / cqm=0 / deadzone=21,11 / fast_pskip=0 / chroma_qp_offset=-2 / threads=22 / lookahead_threads=5 / sliced_threads=0 / nr=0 / decimate=0 / interlaced=0 / bluray_compat=0 / constrained_intra=0 / fgo=0 / bframes=11 / b_pyramid=2 / b_adapt=2 / b_bias=0 / direct=3 / weightb=1 / open_gop=0 / weightp=2 / keyint=240 / keyint_min=24 / scenecut=40 / intra_refresh=0 / rc_lookahead=40 / rc=crf / mbtree=0 / crf=16.7000 / qcomp=0.70 / qpmin=0 / qpmax=69 / qpstep=4 / vbv_maxrate=40000 / vbv_bufsize=30000 / crf_max=0.0 / nal_hrd=none / filler=0 / ip_ratio=1.20 / pb_ratio=1.20 / aq=3:0.85
Language : English
Default : Yes
Forced : No
Statistics Tags Issue : mkvmerge v20.0.0 ('I Am The Sun') 64-bit 2018-01-25 17:24:56 / mkvmerge v6.1.0 ('Old Devil') built on Mar 4 2013 09:10:42 2018-01-26 13:28:15
FromStats_BitRate : 8956485
FromStats_Duration : 01:33:46.663000000
FromStats_FrameCount : 134905
FromStats_StreamSize : 6299390977

Audio
ID : 2
Format : AC-3
Format/Info : Audio Coding 3
Mode extension : CM (complete main)
Format settings, Endianness : Big
Codec ID : A_AC3
Duration : 1 h 33 min
Bit rate mode : Constant
Bit rate : 640 kb/s
Channel(s) : 6 channels
Channel positions : Front: L C R, Side: L R, LFE
Sampling rate : 48.0 kHz
Frame rate : 31.250 FPS (1536 spf)
Bit depth : 16 bits
Compression mode : Lossy
Stream size : 429 MiB (7%)
Title : Earth.One.Amazing.Day.2017.720p.BluRay.x264.DD5.1-HDC
Language : English
Default : Yes
Forced : No
Statistics Tags Issue : mkvmerge v20.0.0 ('I Am The Sun') 64-bit 2018-01-25 17:24:56 / mkvmerge v6.1.0 ('Old Devil') built on Mar 4 2013 09:10:42 2018-01-26 13:28:15
FromStats_BitRate : 640000
FromStats_Duration : 01:33:46.688000000
FromStats_FrameCount : 175834
FromStats_StreamSize : 450135040

Text #1
ID : 3
Format : UTF-8
Codec ID : S_TEXT/UTF8
Codec ID/Info : UTF-8 Plain Text
Title : Rus_by_S1LveR
Language : Russian
Default : Yes
Forced : No

Text #2
ID : 4
Format : UTF-8
Codec ID : S_TEXT/UTF8
Codec ID/Info : UTF-8 Plain Text
Language : English
Default : No
Forced : No
Statistics Tags Issue : mkvmerge v20.0.0 ('I Am The Sun') 64-bit 2018-01-25 17:24:56 / mkvmerge v6.1.0 ('Old Devil') built on Mar 4 2013 09:10:42 2018-01-26 13:28:15
FromStats_BitRate : 35
FromStats_Duration : 01:26:57.337000000
FromStats_FrameCount : 452
FromStats_StreamSize : 23047



Скачать Земля.Один.потрясающий.день.Earth.One.Amazing.Day.(Ричард.Дэйл.Фань.Лисинь.Питер.Веббер).[2017.документальный.научно-популярный.семейный.BDRip].[720p].[Sub.Rus.Eng]x2.torrent без регистрации
Золото ЗОЛОТАЯ РАЗДАЧА! СКАЧАННОЕ НЕ ЗАСЧИТЫВАЕТСЯ! Золото
Дата: Зарегистрирован   [ Тип: внутренний ] Как тут cкачать?
MAGNET ссылка
MAGNET ссылка


Скачать .torrent

17 KB

Статус: проверено DHT
Скачан: торрент - 27 раз, раздача полностью - 17 раз
Размер: 6,29 GB
Оценка:  - (Голосов: 0)
Поблагодарили: 0
Поделиться ссылкой на эту раздачу с друзьями:
В контактеFacebookОдноклассникиTwitterLivejournalМой МирLiveinternet
 

 
Показать сообщения:    


Вы не можете начинать темы
Вы не можете отвечать на сообщения
Вы не можете редактировать свои сообщения
Вы не можете удалять свои сообщения
Вы не можете голосовать в опросах
Вы не можете прикреплять файлы к сообщениям
Вы можете скачивать файлы