Loading...
Error

Скачать Очаровательная проказница / La belle noiseuse (Жак Риветт) [1991, драма, BDRemux] [1080р] [MVO]+[Fre.]+[Sub Rus] торрент без регистрации

Статистика раздачи
Размер:  36,15 GB   |    Скачан:  12 раз
Сидов:  1  [  0 KB/s  ]  
 
 
 
Автор Сообщение

Marsianka

[] 

Информация о фильме
Название: Очаровательная проказница
Оригинальное название: La belle noiseuse
Год выхода: 1991
Жанр: драма
Режиссер: Жак Риветт
В ролях: Мишель Пикколи, Джейн Биркин, Эммануэль Беар, Марианн Деникур, Дэвид Бурштейн, Жиль Арбона, Мари Беллюк, Мари-Клод Роже, Лейла Ремили, Дафна Гудфеллоу, Бернард Дюфур

Описание: Драма о непростых взаимоотношениях художников и моделей. Известный в прошлом живописец, Френхофер живет уединенно в небольшой деревеньке на юге Франции. Его приезжает навестить молодой коллега-художник с юной подругой Марианной.

Увидев девушку, Френхофер решает закончить картину «Очаровательная проказница», работу над которой он начал много лет назад и бросил. Возвращение к творчеству и участие в процессе Марианны в качестве модели полностью меняет отношения в этом любовном треугольнике.



Страна: Франция, Швейцария
Продолжительность: 03:58:20
Профессиональный (многоголосый закадровый)
Субтитры: русские
Оригинальная аудиодорожка: французский
Файл
Качество: BDRemux 1080р
Видео: AVC / 1920x1080 / 16:9 / 24.0 fps / 20000 kbps / High@L4.1
Аудио 1: Rus / AC3 / 48.0 KHz / 2.0 / 192 kbps / MVO
Аудио 2: Fre / DTS-HD MA / 48.0 KHz / 2.0 / 1536 kbps / 16 bit (DTS Core 48.0 KHz / 2.0 / 1509 kbps / 16 bit)
Общее
Уникальный идентификатор : 12406189748792760613577372914781833916 (0x9555861358F7CFE5D5ACAE555F4CABC)
Полное имя : La.belle.noiseuse.1991- BDRemux.1080p.mkv
Формат : Matroska
Версия формата : Version 4 / Version 2
Размер файла : 36,2 Гбайт
Продолжительность : 3 ч. 58 м.
Режим общего битрейта : Переменный
Общий поток : 21,7 Мбит/сек
Название фильма : La.belle.noiseuse.1991.BDRemux- 1080p-porvaliparus
Дата кодирования : UTC 2018-02-03 00:17:51
Программа кодирования : mkvmerge v20.0.0 ('I Am The Sun') 64-bit
Библиотека кодирования : libebml v1.3.5 + libmatroska v1.4.8

Видео
Идентификатор : 1
Формат : AVC
Формат/Информация : Advanced Video Codec
Профиль формата : High@L4.1
Настройки формата : CABAC / 4 Ref Frames
Параметр CABAC формата : Да
Параметр RefFrames формата : 4 кадра
Идентификатор кодека : V_MPEG4/ISO/AVC
Продолжительность : 3 ч. 58 м.
Вид битрейта : Переменный
Битрейт : 20,0 Мбит/сек
Максимальный битрейт : 37,0 Мбит/сек
Ширина : 1920 пикселей
Высота : 1080 пикселей
Соотношение сторон : 16:9
Режим частоты кадров : Постоянный
Частота кадров : 24,000 кадра/сек
Цветовое пространство : YUV
Субдискретизация насыщенности : 4:2:0
Битовая глубина : 8 бит
Тип развёртки : Прогрессивная
Бит/(Пиксели*Кадры) : 0.401
Размер потока : 33,2 Гбайт (92%)
Заголовок : La.belle.noiseuse.1991-BDRemux.1080p
Default : Да
Forced : Нет

Аудио #1
Идентификатор : 2
Формат : AC-3
Формат/Информация : Audio Coding 3
Идентификатор кодека : A_AC3
Продолжительность : 3 ч. 58 м.
Вид битрейта : Постоянный
Битрейт : 192 Кбит/сек
Каналы : 2 канала
Расположение каналов : Front: L R
Частота : 48,0 КГц
Частота кадров : 31,250 кадров/сек (1536 SPF)
Битовая глубина : 16 бит
Метод сжатия : С потерями
Размер потока : 327 Мбайт (1%)
Заголовок : MVO
Язык : Russian
Default : Да
Forced : Нет

Аудио #2
Идентификатор : 3
Формат : DTS
Формат/Информация : Digital Theater Systems
Профиль формата : MA / Core
Идентификатор кодека : A_DTS
Продолжительность : 3 ч. 58 м.
Вид битрейта : Переменный / Постоянный
Битрейт : 1536 Кбит/сек / 1509 Кбит/сек
Каналы : 2 канала
Расположение каналов : Front: L R
Частота : 48,0 КГц
Частота кадров : 93,750 кадра/сек (512 SPF)
Битовая глубина : 16 бит
Метод сжатия : Без потерь / Lossy
Размер потока : 2,61 Гбайт (7%)
Язык : French
Default : Нет
Forced : Нет

Текст
Идентификатор : 4
Формат : UTF-8
Идентификатор кодека : S_TEXT/UTF8
Идентификатор кодека/Информация : UTF-8 Plain Text
Продолжительность : 3 ч. 56 м.
Битрейт : 41 бит/сек
ElementCount : 1458
Размер потока : 72,8 Кбайт (0%)
Язык : Russian
Default : Нет
Forced : Нет

Меню
00:00:00.000 : en:00:00:00.000
00:11:16.750 : en:00:11:16.750
00:20:04.667 : en:00:20:04.667
00:26:52.167 : en:00:26:52.167
00:36:55.375 : en:00:36:55.375
00:48:53.792 : en:00:48:53.792
00:58:47.000 : en:00:58:47.000
01:13:38.708 : en:01:13:38.708
01:26:27.958 : en:01:26:27.958
01:36:47.000 : en:01:36:47.000
01:52:58.708 : en:01:52:58.708
02:02:41.375 : en:02:02:41.375
02:14:14.125 : en:02:14:14.125
02:21:37.417 : en:02:21:37.417
02:34:30.333 : en:02:34:30.333
02:44:52.292 : en:02:44:52.292
02:55:34.500 : en:02:55:34.500
03:04:23.875 : en:03:04:23.875
03:17:10.458 : en:03:17:10.458
03:25:09.792 : en:03:25:09.792
03:30:07.458 : en:03:30:07.458
03:36:27.833 : en:03:36:27.833
03:42:15.125 : en:03:42:15.125
03:46:33.208 : en:03:46:33.208



Скачать Очаровательная.проказница.La.belle.noiseuse.(Жак.Риветт).[1991.драма.BDRemux].[1080р].[MVO]+[Fre.]+[Sub.Rus].torrent без регистрации
Золото ЗОЛОТАЯ РАЗДАЧА! СКАЧАННОЕ НЕ ЗАСЧИТЫВАЕТСЯ! Золото
Дата: Зарегистрирован   [ Тип: внутренний ] Как тут cкачать?
MAGNET ссылка
MAGNET ссылка


Скачать .torrent

91 KB

Статус: проверено DHT
Скачан: торрент - 12 раз, раздача полностью - 15 раз
Размер: 36,15 GB
Оценка:  - (Голосов: 0)
Поблагодарили: 0
Поделиться ссылкой на эту раздачу с друзьями:
В контактеFacebookОдноклассникиTwitterLivejournalМой МирLiveinternet
 

 
Показать сообщения:    


Вы не можете начинать темы
Вы не можете отвечать на сообщения
Вы не можете редактировать свои сообщения
Вы не можете удалять свои сообщения
Вы не можете голосовать в опросах
Вы не можете прикреплять файлы к сообщениям
Вы можете скачивать файлы