Loading...
Error

Скачать Реаниматор / Re-Animator (Стюарт Гордон) [1985, ужасы, фантастика, комедия, BDRemux] [1080p] [Integral Version] [DVO]+[AVO]x2+[Оригинал Eng]+[Sub Rus, Eng] торрент без регистрации

Статистика раздачи
Размер:  34,07 GB   |    Скачан:  7 раз
Сидов:  1  [  0 KB/s  ]  
 
 
 
Автор Сообщение

Marsianka

[] 

Информация о фильме
Название: Реаниматор
Оригинальное название: Re-Animator
Год выхода: 1985
Жанр: ужасы, фантастика, комедия
Режиссер: Стюарт Гордон
В ролях: Джеффри Комбс, Брюс Эбботт, Барбара Крэмптон, Дэвид Гэйл, Роберт Сэмпсон, Джерри Блэк, Кэролин Пёрди-Гордон, Питер Кент, Barbara Pieters, Йен Патрик Уильямс

О фильме:
Мертвецов реанимирует с помощью таинственной сыворотки, полученной в результате немыслимых экспериментов, студент медицинского университета Герберт Вест. Сосед Веста по комнате Дэн помогает приятелю в его страшном деле.
Начинают они с кошки, потом добираются до трупов из университетского морга…



Страна: США
Студия: Empire Pictures, Re-Animator Productions Inc.
Продолжительность: 01:44:55
Перевод: Профессиональный (двухголосый закадровый), авторский (одноголосый)

Файл
Кодек: AVC x264
Качество: BDRemux 1080p
Видео: 1920x1080 (16:9), 34500 Кбит/сек, 0.693 бит/(Пиксели*Кадры), 23,976 кадр/сек (24000/1001)

Русская, DTS-HD MA 5.1, 3010 Кбит/сек, 48,0 КГц, 24-bit (DTS Core: 5.1 / 48 kHz / 768 Кбит/сек / 24-bit) |DVO Гланц и Королёва|
Русская, DTS-HD MA 5.1, 3002 Кбит/сек, 48,0 КГц, 24-bit (DTS Core: 5.1 / 48 kHz / 768 Кбит/сек / 24-bit) |AVO Гаврилов|
Русская, DTS-HD MA 5.1, 3004 Кбит/сек, 48,0 КГц, 24-bit (DTS Core: 5.1 / 48 kHz / 768 Кбит/сек / 24-bit) |AVO Живов|
Английская, DTS-HD MA 5.1, 2983 Кбит/сек, 48,0 КГц, 24-bit (DTS Core: 5.1 / 48 kHz / 768 Кбит/сек / 24-bit) |Оригинал|
Субтитры: Русские (форсированные для DVO, форсированные для AVO, полные), английские
Разделение по главам: есть

Аудиодорожка Гланц и Королёва является наиболее полным переводом. есть всего несколько неозвученных фраз. Используйте для неё субтитры"Форсированные для Гланц и Королёвой"
Аудиодорожки с авторскими переводами охватывают только сцены, совпадающие с обычной версией. Рекомендуется использовать субтитры "Форсированные для Живова и Гаврилова"

General
Unique ID : 213551006369925744561847362964807011714 (0xA0A86D832226B13A99EB039DF948CD82)
Complete name : H:Re-Animator.1985.INTEGRAL VERSION LIMITED EDITION.1080p.BluRay.REMUX.AVC.DTS-HD MA 5.1.mkv
Format : Matroska
Format version : Version 4 / Version 2
File size : 34.1 GiB
Duration : 1 h 44 min
Overall bit rate mode : Variable
Overall bit rate : 46.5 Mb/s
Encoded date : UTC 2018-02-02 20:23:33
Writing application : mkvmerge v18.0.0 ('Apricity') 64-bit
Writing library : libebml v1.3.5 + libmatroska v1.4.8

Video
ID : 1
Format : AVC
Format/Info : Advanced Video Codec
Format profile : High@L4.1
Format settings : CABAC / 3 Ref Frames
Format settings, CABAC : Yes
Format settings, RefFrames : 3 frames
Codec ID : V_MPEG4/ISO/AVC
Duration : 1 h 44 min
Bit rate mode : Variable
Bit rate : 34.5 Mb/s
Maximum bit rate : 35.0 Mb/s
Width : 1 920 pixels
Height : 1 080 pixels
Display aspect ratio : 16:9
Frame rate mode : Constant
Frame rate : 23.976 (24000/1001) FPS
Color space : YUV
Chroma subsampling : 4:2:0
Bit depth : 8 bits
Scan type : Progressive
Bits/(Pixel*Frame) : 0.693
Stream size : 25.3 GiB (74%)
Default : Yes
Forced : No
Color range : Limited
Color primaries : BT.709
Transfer characteristics : BT.709
Matrix coefficients : BT.709

Audio #1
ID : 2
Format : DTS
Format/Info : Digital Theater Systems
Format profile : MA / Core
Mode : 16
Format settings, Endianness : Big
Codec ID : A_DTS
Duration : 1 h 44 min
Bit rate mode : Variable / Constant
Bit rate : 3 010 kb/s / 768 kb/s
Channel(s) : 6 channels
Channel positions : Front: L C R, Side: L R, LFE
Sampling rate : 48.0 kHz
Frame rate : 93.750 FPS (512 SPF)
Bit depth : 24 bits
Compression mode : Lossless / Lossy
Stream size : 2.21 GiB (6%)
Title : DVO Гланц и Королёва
Language : Russian
Default : Yes
Forced : No

Audio #2
ID : 3
Format : DTS
Format/Info : Digital Theater Systems
Format profile : MA / Core
Mode : 16
Format settings, Endianness : Big
Codec ID : A_DTS
Duration : 1 h 44 min
Bit rate mode : Variable / Constant
Bit rate : 3 002 kb/s / 768 kb/s
Channel(s) : 6 channels
Channel positions : Front: L C R, Side: L R, LFE
Sampling rate : 48.0 kHz
Frame rate : 93.750 FPS (512 SPF)
Bit depth : 24 bits
Compression mode : Lossless / Lossy
Stream size : 2.20 GiB (6%)
Title : AVO Гаврилов
Language : Russian
Default : No
Forced : No

Audio #3
ID : 4
Format : DTS
Format/Info : Digital Theater Systems
Format profile : MA / Core
Mode : 16
Format settings, Endianness : Big
Codec ID : A_DTS
Duration : 1 h 44 min
Bit rate mode : Variable / Constant
Bit rate : 3 004 kb/s / 768 kb/s
Channel(s) : 6 channels
Channel positions : Front: L C R, Side: L R, LFE
Sampling rate : 48.0 kHz
Frame rate : 93.750 FPS (512 SPF)
Bit depth : 24 bits
Compression mode : Lossless / Lossy
Stream size : 2.20 GiB (6%)
Title : AVO Живов
Language : Russian
Default : No
Forced : No

Audio #4
ID : 5
Format : DTS
Format/Info : Digital Theater Systems
Format profile : MA / Core
Mode : 16
Format settings, Endianness : Big
Codec ID : A_DTS
Duration : 1 h 44 min
Bit rate mode : Variable / Constant
Bit rate : 2 983 kb/s / 768 kb/s
Channel(s) : 6 channels
Channel positions : Front: L C R, Side: L R, LFE
Sampling rate : 48.0 kHz
Frame rate : 93.750 FPS (512 SPF)
Bit depth : 24 bits
Compression mode : Lossless / Lossy
Stream size : 2.19 GiB (6%)
Title : Оригинал
Language : English
Default : No
Forced : No

Text #1
ID : 6
Format : UTF-8
Codec ID : S_TEXT/UTF8
Codec ID/Info : UTF-8 Plain Text
Duration : 22 s 814 ms
Bit rate : 88 b/s
Count of elements : 6
Stream size : 251 Bytes (0%)
Title : Форсированные для Гланц и Королёвой
Language : Russian
Default : Yes
Forced : No

Text #2
ID : 7
Format : UTF-8
Codec ID : S_TEXT/UTF8
Codec ID/Info : UTF-8 Plain Text
Duration : 1 h 23 min
Bit rate : 26 b/s
Count of elements : 307
Stream size : 16.2 KiB (0%)
Title : Форсированные для Живова и Гаврилова
Language : Russian
Default : No
Forced : No

Text #3
ID : 8
Format : UTF-8
Codec ID : S_TEXT/UTF8
Codec ID/Info : UTF-8 Plain Text
Duration : 1 h 41 min
Bit rate : 73 b/s
Count of elements : 1090
Stream size : 54.6 KiB (0%)
Title : RUS FULL
Language : Russian
Default : No
Forced : No

Text #4
ID : 9
Format : UTF-8
Codec ID : S_TEXT/UTF8
Codec ID/Info : UTF-8 Plain Text
Duration : 1 h 39 min
Bit rate : 43 b/s
Count of elements : 1077
Stream size : 31.6 KiB (0%)
Title : ENG
Language : English
Default : No
Forced : No

Menu
00:00:00.000 : en:Chapter 1 / en:Chapter 01
00:07:19.730 : en:Chapter 2
00:17:53.072 : en:Chapter 3
00:29:37.400 : en:Chapter 4
00:36:23.931 : en:Chapter 5
00:48:53.013 : en:Chapter 6
00:56:35.141 : en:Chapter 7
01:07:20.244 : en:Chapter 8
01:15:48.877 : en:Chapter 9
01:23:10.235 : en:Chapter 10
01:29:08.259 : en:Chapter 11
01:37:17.706 : en:Chapter 12



Скачать Реаниматор.Re-Animator.(Стюарт.Гордон).[1985.ужасы.фантастика.комедия.BDRemux].[1080p].[Integral.Version].[DVO]+[AVO]x2+[Оригинал.Eng]+[Sub.Rus.Eng].torrent без регистрации
Золото ЗОЛОТАЯ РАЗДАЧА! СКАЧАННОЕ НЕ ЗАСЧИТЫВАЕТСЯ! Золото
Дата: Зарегистрирован   [ Тип: внутренний ] Как тут cкачать?
MAGNET ссылка
MAGNET ссылка


Скачать .torrent

86 KB

Статус: проверено DHT
Скачан: торрент - 7 раз, раздача полностью - 1 раз
Размер: 34,07 GB
Оценка:  - (Голосов: 0)
Поблагодарили: 0
Поделиться ссылкой на эту раздачу с друзьями:
В контактеFacebookОдноклассникиTwitterLivejournalМой МирLiveinternet
 

 
Показать сообщения:    


Вы не можете начинать темы
Вы не можете отвечать на сообщения
Вы не можете редактировать свои сообщения
Вы не можете удалять свои сообщения
Вы не можете голосовать в опросах
Вы не можете прикреплять файлы к сообщениям
Вы можете скачивать файлы