Loading...
Error

Скачать Несколько хороших парней / A Few Good Men (Роб Райнер) [1992, триллер, драма, криминал, детектив, экранизация, UHD BDRemux] [2160p] [4K] [HDR] [MVO]+[Dub]+[AVO]x3+[Eng]x2+[Sub Rus, Eng]x2 торрент без регистрации

Статистика раздачи
Размер:  53,93 GB   |    Скачан:  16 раз
Сидов:  2  [  0 KB/s  ]  
 
 
 
Автор Сообщение

Marsianka

[] 

Информация о фильме
Название: Несколько хороших парней
Оригинальное название: A Few Good Men
Год выхода: 1992
Жанр: триллер, драма, криминал, детектив, экранизация
Режиссер: Роб Райнер
В ролях: Том Круз, Деми Мур, Кевин Поллак, Джек Николсон, Кевин Бэйкон, Кифер Сазерленд, Джеймс Маршалл, Вольфганг Бодисон, Дж.Т. Уолш, Кьюба Гудинг мл., Ксандер Беркли, Мэтт Крэвен, Кристофер Гест, Дж.А. Престон, Джон М. Джексон, Ноа Уайли, Лоуренс Лоу, Джошуа Малина, Оскар Джордан, Джон М. Мэтьюз, Аарон Соркин, Алекс Вексо

О фильме:
Два морпеха предстают перед судом за незаконную расправу над своим товарищем. Участь защищать их выпадает на долю молодого самоуверенного потомственного адвоката, который явно предпочитает бейсбол жестким играм закона. Однако дело оказывается не таким простым, как ему казалось, и он решает раскрыть тайну жестоких убийств и наказать тех, кто несет ответственность за смерть солдата, чего бы ему это не стоило. Бросив вызов сильным мира сего, он рискует всем -своей карьерой, спокойным существованием, любимой женщиной и даже жизнью, ведь те, у кого он встал на пути, не остановятся не перед чем. Но чтобы победить в этом противостоянии, прежде всего ему надо победить себя, свои самые глубинные страхи… Экранизация по произведению: Аарон Соркин.



Страна: США
Студия: Columbia Pictures, Castle Rock Entertainment
Продолжительность: 02:18:01
Перевод: Профессиональный многоголосый, дублированный, авторский

Файл
Кодек: H.265
Качество: UHD BDRemux 2160p
Видео: MPEG-H HEVC HDR Video, 3840x2160, 47.8 Mbit/s, 23.976 fps

Русский (DTS-HD MA, 6 ch, 2194 Кбит/с) / Профессиональный многоголосый (R5)
Русский (AC3, 2 ch, 192 Кбит/с) / дублированный
Русский (DTS, 6 ch, 768 Кбит/с) / авторский (Гаврилов)
Русский (AC3, 2 ch, 192 Кбит/с) / авторский (Володарский)
Русский (AC3, 2 ch, 192 Кбит/с) / авторский (Кузнецов)
Английский (TrueHD+Atmos, 8 ch, 6567 Кбит/с)
Английский (AC3, 6 ch, 640 Кбит/с)
Субтитры: Русские, английские
Семпл
General
Unique ID : 109789437569246453552746542401483071972 (0x5298AD31AC5DABD49CA7171958EA61E4)
Complete name : D:uTorrentNeskolko.horoshih.parney.1992.BDRemux.2160p.HDR.HEVC.MediaClub.mkv
Format : Matroska
Format version : Version 4 / Version 2
File size : 53.9 GiB
Duration : 2 h 18 min
Overall bit rate mode : Variable
Overall bit rate : 55.9 Mb/s
Encoded date : UTC 2018-02-03 08:06:04
Writing application : mkvmerge v19.0.0 ('Brave Captain') 64-bit
Writing library : libebml v1.3.5 + libmatroska v1.4.8
Cover : Yes
Attachments : cover.png

Video
ID : 1
Format : HEVC
Format/Info : High Efficiency Video Coding
Format profile : Main 10@L5.1@High
Codec ID : V_MPEGH/ISO/HEVC
Duration : 2 h 18 min
Bit rate : 47.8 Mb/s
Width : 3 840 pixels
Height : 2 160 pixels
Display aspect ratio : 16:9
Frame rate mode : Constant
Frame rate : 23.976 (24000/1001) FPS
Color space : YUV
Chroma subsampling : 4:2:0 (Type 2)
Bit depth : 10 bits
Bits/(Pixel*Frame) : 0.240
Stream size : 46.1 GiB (85%)
Title : 4K, HEVC, HDR | Blu-Ray Remux by Silverok
Default : Yes
Forced : No
Color range : Limited
Color primaries : BT.2020
Transfer characteristics : PQ
Matrix coefficients : BT.2020 non-constant
Mastering display color primaries : Display P3
Mastering display luminance : min: 0.0050 cd/m2, max: 4000 cd/m2
Maximum Content Light Level : 10000 cd/m2
Maximum Frame-Average Light Level : 424 cd/m2

Audio #1
ID : 2
Format : DTS
Format/Info : Digital Theater Systems
Format profile : MA / Core
Codec ID : A_DTS
Duration : 2 h 18 min
Bit rate mode : Variable / Constant
Bit rate : 2 194 kb/s / 1 509 kb/s
Channel(s) : 6 channels
Channel positions : Front: L C R, Side: L R, LFE
Sampling rate : 48.0 kHz
Frame rate : 93.750 FPS (512 SPF)
Bit depth : 16 bits
Compression mode : Lossless / Lossy
Stream size : 2.12 GiB (4%)
Title : Профессиональный многоголосый закадровый (R5)
Language : Russian
Default : Yes
Forced : No

Audio #2
ID : 3
Format : AC-3
Format/Info : Audio Coding 3
Codec ID : A_AC3
Duration : 2 h 18 min
Bit rate mode : Constant
Bit rate : 192 kb/s
Channel(s) : 2 channels
Channel positions : Front: L R
Sampling rate : 48.0 kHz
Frame rate : 31.250 FPS (1536 SPF)
Bit depth : 16 bits
Compression mode : Lossy
Stream size : 190 MiB (0%)
Title : Профессиональный (дублированный)
Language : Russian
Service kind : Complete Main
Default : No
Forced : No

Audio #3
ID : 4
Format : DTS
Format/Info : Digital Theater Systems
Codec ID : A_DTS
Duration : 2 h 18 min
Bit rate mode : Constant
Bit rate : 755 kb/s
Channel(s) : 6 channels
Channel positions : Front: L C R, Side: L R, LFE
Sampling rate : 48.0 kHz
Frame rate : 93.750 FPS (512 SPF)
Bit depth : 16 bits
Compression mode : Lossy
Stream size : 745 MiB (1%)
Title : авторский одноголосый (Гаврилов)
Language : Russian
Default : No
Forced : No

Audio #4
ID : 5
Format : AC-3
Format/Info : Audio Coding 3
Codec ID : A_AC3
Duration : 2 h 18 min
Bit rate mode : Constant
Bit rate : 192 kb/s
Channel(s) : 2 channels
Channel positions : Front: L R
Sampling rate : 48.0 kHz
Frame rate : 31.250 FPS (1536 SPF)
Bit depth : 16 bits
Compression mode : Lossy
Stream size : 190 MiB (0%)
Title : авторский одноголосый (Володарский)
Language : Russian
Service kind : Complete Main
Default : No
Forced : No

Audio #5
ID : 6
Format : AC-3
Format/Info : Audio Coding 3
Codec ID : A_AC3
Duration : 2 h 17 min
Bit rate mode : Constant
Bit rate : 192 kb/s
Channel(s) : 2 channels
Channel positions : Front: L R
Sampling rate : 48.0 kHz
Frame rate : 31.250 FPS (1536 SPF)
Bit depth : 16 bits
Compression mode : Lossy
Stream size : 189 MiB (0%)
Title : авторский одноголосый (Кузнецов)
Language : Russian
Service kind : Complete Main
Default : No
Forced : No

Audio #6
ID : 7
Format : TrueHD
Format profile : TrueHD+Atmos / TrueHD
Codec ID : A_TRUEHD
Duration : 2 h 18 min
Bit rate mode : Variable
Bit rate : 3 895 kb/s
Maximum bit rate : 6 567 kb/s
Channel(s) : Object Based / 8 channels
Channel positions : Object Based / Front: L C R, Side: L R, Back: L R, LFE
Sampling rate : / 48.0 kHz
Frame rate : 1 200.000 FPS (40 SPF)
Compression mode : Lossless
Stream size : 3.75 GiB (7%)
Language : English
Default : No
Forced : No

Audio #7
ID : 8
Format : AC-3
Format/Info : Audio Coding 3
Codec ID : A_AC3
Duration : 2 h 18 min
Bit rate mode : Constant
Bit rate : 640 kb/s
Channel(s) : 6 channels
Channel positions : Front: L C R, Side: L R, LFE
Sampling rate : 48.0 kHz
Frame rate : 31.250 FPS (1536 SPF)
Bit depth : 16 bits
Compression mode : Lossy
Stream size : 632 MiB (1%)
Language : English
Service kind : Complete Main
Default : No
Forced : No

Text #1
ID : 9
Format : UTF-8
Codec ID : S_TEXT/UTF8
Codec ID/Info : UTF-8 Plain Text
Duration : 2 h 13 min
Bit rate : 152 b/s
Count of elements : 1986
Stream size : 149 KiB (0%)
Language : Russian
Default : No
Forced : No

Text #2
ID : 10
Format : UTF-8
Codec ID : S_TEXT/UTF8
Codec ID/Info : UTF-8 Plain Text
Duration : 2 h 9 min
Bit rate : 86 b/s
Count of elements : 1692
Stream size : 81.6 KiB (0%)
Language : English
Default : No
Forced : No

Menu
00:00:00.000 : en:Start
00:07:58.895 : en:Case Facts
00:16:32.157 : en:Right Man for the Job
00:25:08.673 : en:Galloway Meets Kaffee
00:40:06.737 : en:Col. Jessep
00:47:42.025 : en:Unit, Corp, God, Country
00:57:11.302 : en:Off the Record
01:05:26.505 : en:Lunch with Jessep
01:13:03.712 : en:"Kendrick Order the Code Red?"
01:22:52.550 : en:Deal Offered & Rejected
01:26:20.133 : en:The Arraignment
01:31:10.381 : en:Preparing Their Case
01:39:52.820 : en:Opening Statements
01:54:37.829 : en:Robert C. Mcguire
02:02:41.228 : en:Cpl. Carl Hammaker
02:10:35.118 : en:Dr. Stone
Релиз от: | Silverok



Скачать Несколько.хороших.парней.A.Few.Good.Men.(Роб.Райнер).[1992.триллер.драма.криминал.детектив.экранизация.UHD.BDRemux].[2160p].[4K].[HDR].[MVO]+[Dub]+[AVO]x3+[Eng]x2+[Sub.Rus.Eng]x2.torrent без регистрации
Золото ЗОЛОТАЯ РАЗДАЧА! СКАЧАННОЕ НЕ ЗАСЧИТЫВАЕТСЯ! Золото
Дата: Зарегистрирован   [ Тип: внешний ] Как тут cкачать?
MAGNET ссылка
MAGNET ссылка


Скачать .torrent

136 KB

Статус: проверено DHT
Скачан: торрент - 16 раз, раздача полностью - 1 раз
Размер: 53,93 GB
Оценка:  - (Голосов: 0)
Поблагодарили: 0
Поделиться ссылкой на эту раздачу с друзьями:
В контактеFacebookОдноклассникиTwitterLivejournalМой МирLiveinternet
 

 
Показать сообщения:    


Вы не можете начинать темы
Вы не можете отвечать на сообщения
Вы не можете редактировать свои сообщения
Вы не можете удалять свои сообщения
Вы не можете голосовать в опросах
Вы не можете прикреплять файлы к сообщениям
Вы можете скачивать файлы