Loading...
Error

Скачать Человек-паук 2 / Spider-Man 2 (Сэм Рэйми) [2004, фантастика, боевик, приключения, комикс, супергерой, UHD BDRemux] [2160p] [4K] [HDR] [Dub]+[DVO]+[AVO]x2+[Eng]+[Sub Rus, Eng]x2 торрент без регистрации

Статистика раздачи
Размер:  50,19 GB   |    Скачан:  20 раз
Сидов:  2  [  0 KB/s  ]   Личеров:  1  [  0 KB/s  ]  
 
 
 
Автор Сообщение

Marsianka

[] 

Информация о фильме
Название: Человек-паук 2
Оригинальное название: Spider-Man 2
Год выхода: 2004
Жанр: фантастика, боевик, приключения, комикс, супергерой
Режиссер: Сэм Рэйми
В ролях: Тоби Магуайр, Кирстен Данст, Джеймс Франко, Альфред Молина, Розмари Харрис, Дж.К. Симмонс, Донна Мёрфи, Дэниэл Гиллис, Дилан Бэйкер, Билл Нанн, Ванесса Ферлито, Аасиф Мандви, Уиллем Дефо, Клифф Робертсон, Тед Рэйми, Элизабет Бэнкс, Брюс Кэмпбелл, Грегг Эдельман, Илья Баскин, Маджейна Това, Дэниэл Дэ Ким, Хэл Спаркс, Джоэл МакХэйл, Стэн Ли, Келли Коннелл, Брент Бриско, Эмили Дешанель, Джейсон Фиоре-Ортиз, Скотт Спигел, Энди Бэйл, Кристин Эстабрук, Молли Чик, Джон Пэкстон

О фильме:
С момента событий, произошедших в первом фильме, прошло два года. Тихоня Питер Паркер сталкивается с новыми проблемами: он борется со своим «даром и проклятьем», отчаянно пытаясь балансировать на грани двух своих жизней: метающего паутину супергероя Человека-Паука и обычного студента колледжа... Мучимый своими секретами, Питер понимает, что его отношения со всеми, кто ему дорог, в опасности или заходят в тупик. Его любовь к Мэри Джейн становится еще сильнее, обостряемая порывом Питера раскрыть ей свой секрет и признаться в любви. Дружба с Гарри осложняется горечью молодого Осборна по умершему отцу и всё большим желанием отомстить Человеку-Пауку. Даже любимая тетушка Мэй, у которой были нелегкие времена после смерти дяди Бена, начинает что-то подозревать насчет своего племянника. Жизнь Питера становится еще более сложной, когда он сталкивается с новым суперзлодеем - доктором Отто Октавиусом. Питер должен использовать все свои суперспособности, чтобы одолеть этого жестокого безумца с восемью конечностями...



Страна: США
Студия: Columbia Pictures Corporation, Laura Ziskin Productions
Продолжительность: 02:18:01
Перевод: Дублированный, профессиональный двухголосый, авторский

Файл
Кодек: H.265
Качество: UHD BDRemux 2160p
Видео: MPEG-H HEVC HDR, 3840x2160, 48.2 Mбит/с, 23.976 кадр/с

Русский (AC3, 6 ch, 448 Кбит/с) / Дублированный (EUR Blu-ray)
Русский (AC3, 6 ch, 448 Кбит/с) / Профессиональный двухголосый (Tycoon Studio)
Русский (DTS, 6 ch, 755 Кбит/с) / Авторский (В. Королёв)
Русский (DTS-HD MA, 6 ch, 4435 Кбит/с) / Авторский (А. Гаврилов)
Английский (DTS-HD MA, 6 ch, 2115 Кбит/с)
Субтитры: Русские, английские
Семпл
General
Unique ID : 278126606243444780745162347670239920717 (0xD13D3C65E0436295A15BCECFF447424D)
Complete name : D:uTorrentChelovek.pauk_2.2004.BDRemux.2160p.HEVC.UHD.HDR.MediaClub.mkv
Format : Matroska
Format version : Version 4 / Version 2
File size : 50.2 GiB
Duration : 2 h 7 min
Overall bit rate : 56.4 Mb/s
Encoded date : UTC 2018-02-02 08:27:23
Writing application : mkvmerge v19.0.0 ('Brave Captain') 64-bit
Writing library : libebml v1.3.5 + libmatroska v1.4.8
Cover : Yes
Attachments : cover.png.jpg

Video
ID : 1
Format : HEVC
Format/Info : High Efficiency Video Coding
Format profile : Main 10@L5.1@High
Codec ID : V_MPEGH/ISO/HEVC
Duration : 2 h 7 min
Bit rate : 48.2 Mb/s
Width : 3 840 pixels
Height : 2 160 pixels
Display aspect ratio : 16:9
Frame rate mode : Constant
Frame rate : 23.976 (24000/1001) FPS
Color space : YUV
Chroma subsampling : 4:2:0 (Type 2)
Bit depth : 10 bits
Bits/(Pixel*Frame) : 0.242
Stream size : 42.9 GiB (85%)
Title : BDRemux, 20160p, HEVC, UDH, HDR by Silverok
Default : Yes
Forced : No
Color range : Limited
Color primaries : BT.2020
Transfer characteristics : PQ
Matrix coefficients : BT.2020 non-constant
Mastering display color primaries : Display P3
Mastering display luminance : min: 0.0050 cd/m2, max: 4000 cd/m2
Maximum Content Light Level : 4471 cd/m2
Maximum Frame-Average Light Level : 1007 cd/m2

Audio #1
ID : 2
Format : AC-3
Format/Info : Audio Coding 3
Codec ID : A_AC3
Duration : 2 h 7 min
Bit rate mode : Constant
Bit rate : 448 kb/s
Channel(s) : 6 channels
Channel positions : Front: L C R, Side: L R, LFE
Sampling rate : 48.0 kHz
Frame rate : 31.250 FPS (1536 SPF)
Bit depth : 16 bits
Compression mode : Lossy
Stream size : 408 MiB (1%)
Title : Профессиональный (дублированный) Blu-Ray
Language : Russian
Service kind : Complete Main
Default : Yes
Forced : No

Audio #2
ID : 3
Format : AC-3
Format/Info : Audio Coding 3
Codec ID : A_AC3
Duration : 2 h 7 min
Bit rate mode : Constant
Bit rate : 448 kb/s
Channel(s) : 6 channels
Channel positions : Front: L C R, Side: L R, LFE
Sampling rate : 48.0 kHz
Frame rate : 31.250 FPS (1536 SPF)
Bit depth : 16 bits
Compression mode : Lossy
Stream size : 408 MiB (1%)
Title : Профессиональный (двухголосый закадровый) Tycoon Studio
Language : Russian
Service kind : Complete Main
Default : No
Forced : No

Audio #3
ID : 4
Format : DTS
Format/Info : Digital Theater Systems
Codec ID : A_DTS
Duration : 2 h 7 min
Bit rate mode : Constant
Bit rate : 755 kb/s
Channel(s) : 6 channels
Channel positions : Front: L C R, Side: L R, LFE
Sampling rate : 48.0 kHz
Frame rate : 93.750 FPS (512 SPF)
Bit depth : 24 bits
Compression mode : Lossy
Stream size : 688 MiB (1%)
Title : Авторский (одноголосый закадровый) В. Королёв
Language : Russian
Default : No
Forced : No

Audio #4
ID : 5
Format : DTS
Format/Info : Digital Theater Systems
Format profile : MA / Core
Codec ID : A_DTS
Duration : 2 h 7 min
Bit rate mode : Variable / Constant
Bit rate : 4 435 kb/s / 1 509 kb/s
Channel(s) : 8 channels / 6 channels
Channel positions : Front: L C R, Side: L R, Back: L R, LFE / Front: L C R, Side: L R, LFE
Sampling rate : 48.0 kHz
Frame rate : 93.750 FPS (512 SPF)
Bit depth : 24 bits
Compression mode : Lossless / Lossy
Stream size : 3.95 GiB (8%)
Title : Авторский (одноголосый закадровый) А. Гаврилов
Language : Russian
Default : No
Forced : No

Audio #5
ID : 6
Format : DTS
Format/Info : Digital Theater Systems
Format profile : MA / Core
Codec ID : A_DTS
Duration : 2 h 7 min
Bit rate mode : Variable / Constant
Bit rate : 2 115 kb/s / 1 509 kb/s
Channel(s) : 6 channels
Channel positions : Front: L C R, Side: L R, LFE
Sampling rate : 48.0 kHz
Frame rate : 93.750 FPS (512 SPF)
Bit depth : 16 bits
Compression mode : Lossless / Lossy
Stream size : 1.88 GiB (4%)
Language : English
Default : No
Forced : No

Text #1
ID : 7
Format : UTF-8
Codec ID : S_TEXT/UTF8
Codec ID/Info : UTF-8 Plain Text
Duration : 2 h 0 min
Bit rate : 69 b/s
Count of elements : 1045
Stream size : 61.7 KiB (0%)
Title : Киномания
Language : Russian
Default : Yes
Forced : No

Text #2
ID : 8
Format : UTF-8
Codec ID : S_TEXT/UTF8
Codec ID/Info : UTF-8 Plain Text
Duration : 1 h 58 min
Bit rate : 69 b/s
Count of elements : 1094
Stream size : 60.8 KiB (0%)
Title : Tycoon Studio
Language : Russian
Default : No
Forced : No

Text #3
ID : 9
Format : UTF-8
Codec ID : S_TEXT/UTF8
Codec ID/Info : UTF-8 Plain Text
Duration : 2 h 4 min
Bit rate : 37 b/s
Count of elements : 1106
Stream size : 33.7 KiB (0%)
Title : full
Language : English
Default : No
Forced : No

Text #4
ID : 10
Format : UTF-8
Codec ID : S_TEXT/UTF8
Codec ID/Info : UTF-8 Plain Text
Duration : 2 h 6 min
Bit rate : 45 b/s
Count of elements : 1437
Stream size : 41.9 KiB (0%)
Title : Full (SDH)
Default : No
Forced : No

Menu
00:00:00.000 : en:Main Titles
00:03:27.457 : en:Pizza Man
00:07:24.861 : en:J. Jonah Jameson
00:08:52.782 : en:Dr. Connors
00:10:06.272 : en:"Surprise!"
00:14:28.867 : en:Peter and Mj in the Backyard
00:17:07.359 : en:Mr. Ditkovich
00:18:55.467 : en:Otto Octavius
00:22:12.414 : en:Wash 'n Dry
00:22:50.452 : en:The Importance of Being Earnest
00:24:23.628 : en:Car Chase
00:26:22.038 : en:The Importance of Being on Time
00:28:27.497 : en:Web Failure
00:29:34.981 : en:The Elevator
00:31:03.569 : en:Peter Calls Mj
00:33:09.779 : en:Otto's Demonstration
00:39:50.429 : en:Horror Hospital
00:41:50.632 : en:Ock Awakens to the Horror
00:43:09.002 : en:New Villain in Town
00:44:40.093 : en:Doc Ock's Lair
00:46:57.105 : en:Bank Heist
00:50:01.039 : en:Battle Building
00:53:02.137 : en:Planetarium Party
00:58:04.647 : en:Spidey Crash Lands in Alley
00:59:36.155 : en:Ock Rebuilds
01:00:01.347 : en:Diagnosis
01:01:31.145 : en:Spider-Man No More
01:03:40.274 : en:"Raindrops Keep Falling on My Head"
01:05:24.295 : en:Peter Attends Mj's Play
01:08:14.298 : en:Jameson Gets the Suit
01:09:40.551 : en:Peter's Confession
01:13:48.298 : en:One More Little Chore
01:16:42.222 : en:Peter and the Burning Building
01:19:16.042 : en:Frustration
01:21:25.839 : en:Peter and Aunt May in the Backyard
01:25:16.069 : en:"My Back! My Back!"
01:26:49.245 : en:Mj Doubts John's The One
01:28:11.160 : en:"Do You Love Me, or Not?"
01:30:40.017 : en:Enter the Octopus
01:33:05.037 : en:He's Back
01:34:12.646 : en:Clock Tower Fight
01:35:10.746 : en:The Train
01:37:12.201 : en:A Train to Catch
01:39:56.281 : en:Grateful Train Passengers
01:42:38.443 : en:Harry Learns the Truth About Peter
01:44:52.661 : en:The Final Confrontation
01:48:03.476 : en:Peter Appeals to Otto
01:53:07.446 : en:Web Love
01:55:30.006 : en:The Return of the Green Goblin
01:57:56.735 : en:Here Comes the Bride
02:01:54.306 : en:The Final Swing
02:02:43.981 : en:End Credits
Релиз от: | Silverok



Скачать Человек-паук.2.Spider-Man.2.(Сэм.Рэйми).[2004.фантастика.боевик.приключения.комикс.супергерой.UHD.BDRemux].[2160p].[4K].[HDR].[Dub]+[DVO]+[AVO]x2+[Eng]+[Sub.Rus.Eng]x2.torrent без регистрации
Золото ЗОЛОТАЯ РАЗДАЧА! СКАЧАННОЕ НЕ ЗАСЧИТЫВАЕТСЯ! Золото
Дата: Зарегистрирован   [ Тип: внешний ] Как тут cкачать?
MAGNET ссылка
MAGNET ссылка


Скачать .torrent

127 KB

Статус: проверено DHT
Скачан: торрент - 20 раз, раздача полностью - 2 раз
Размер: 50,19 GB
Оценка:  - (Голосов: 0)
Поблагодарили: 0
Поделиться ссылкой на эту раздачу с друзьями:
В контактеFacebookОдноклассникиTwitterLivejournalМой МирLiveinternet
 

 
Показать сообщения:    


Вы не можете начинать темы
Вы не можете отвечать на сообщения
Вы не можете редактировать свои сообщения
Вы не можете удалять свои сообщения
Вы не можете голосовать в опросах
Вы не можете прикреплять файлы к сообщениям
Вы можете скачивать файлы