Loading...
Error

Скачать Закон джунглей / La loi de la jungle (Antonin Peretjatko) [2016, комедия, WEB-DLRip] [1080p] [Fre]+[Sub Rus] торрент без регистрации

Статистика раздачи
Размер:  3,58 GB   |    Скачан:  35 раз
Сидов:  2  [  0 KB/s  ]  
 
 
 
Автор Сообщение

МихаНЕзатор

[] 

Информация о фильме
Название: Закон джунглей
Оригинальное название: La loi de la jungle
Год выхода: 2016
Жанр: комедия
Режиссер: Antonin Peretjatko

В ролях: Венсан Макен, Вимала Понс, Паскаль Лежитимюс, Матьё Амальрик, Фред Туш, Родольф Поли, Жан-Люк Бидо, Pascal Tagnati, Thomas De Pourquery, Филипп Лоденбаш

О фильме: Популярный комедийный актер Венсан Макен, которого обожает вся Франция, а также Матье Амальрик и Вимала Понс в ленте «Закон джунглей». Вы наверняка помните Макена по его ролям в фильмах «Новости с планеты Марс» и «Друзья». Обычного стажера Министерства стандартизации Марка Шатеня посылают в командировку в далекую Гвиану. Там он должен привести в соответствие с европейскими нормами строительство масштабного проекта «Гвиа-Снег» – первой в Амазонии крытой лыжной трассы. Ее возведение обеспечит небогатую Гвиану огромным туристическим потоком, и, следовательно, инвестициями и улучшением уровня жизни.Взяв в напарницы симпатичную и очень дерзкую девушку, Марк с деловым видом направляется решать рабочие вопросы. Но то, что поджидает их в амазонских джунглях, не могло им присниться и в самых странных снах.

Релиз от:
Silverok

Страна: Франция
Студия: Aldabra films, Canal+ [fr]
Продолжительность: 01:35:37
Перевод: Субтитры

Файл
Кодек: h.264
Качество: WEB-DLRip 1080p
Видео: MPEG-4 AVC, 5120 Кбит/с, 1920x1036, 25,000 кадр/с
Звук: Французский (AC3, 2 ch, 256 Кбит/с)
Субтитры: Русские (хардсаб)

АНОНСЫ ПОПУЛЯРНЫХ РАЗДАЧ
General
Unique ID : 242885800019559732671299349590427084411 (0xB6BA1A8119A399D3A531D5ABE8ACA67B)
Complete name : D:uTorrentZakon.dzhungley.2016.WEB-DLRip.1080p.MediaClub.mkv
Format : Matroska
Format version : Version 4 / Version 2
File size : 3.58 GiB
Duration : 1 h 35 min
Overall bit rate : 5 363 kb/s
Encoded date : UTC 2018-01-26 17:08:21
Writing application : mkvmerge v17.0.0 ('Be Ur Friend') 64-bit
Writing library : libebml v1.3.5 + libmatroska v1.4.8

Video
ID : 1
Format : AVC
Format/Info : Advanced Video Codec
Format profile : High@L4
Format settings : CABAC / 4 Ref Frames
Format settings, CABAC : Yes
Format settings, RefFrames : 4 frames
Codec ID : V_MPEG4/ISO/AVC
Duration : 1 h 35 min
Bit rate : 5 120 kb/s
Width : 1 920 pixels
Height : 1 036 pixels
Display aspect ratio : 1.85:1
Frame rate mode : Constant
Frame rate : 25.000 FPS
Color space : YUV
Chroma subsampling : 4:2:0
Bit depth : 8 bits
Scan type : Progressive
Bits/(Pixel*Frame) : 0.103
Stream size : 3.41 GiB (95%)
Title : WEB-DLRip by Silverok
Writing library : x264 core 142
Encoding settings : cabac=1 / ref=3 / deblock=1:0:0 / analyse=0x3:0x113 / me=hex / subme=7 / psy=1 / psy_rd=1.00:0.00 / mixed_ref=1 / me_range=16 / chroma_me=1 / trellis=1 / 8x8dct=1 / cqm=0 / deadzone=21,11 / fast_pskip=1 / chroma_qp_offset=-2 / threads=48 / lookahead_threads=8 / sliced_threads=0 / nr=0 / decimate=1 / interlaced=0 / bluray_compat=0 / constrained_intra=0 / bframes=6 / b_pyramid=2 / b_adapt=1 / b_bias=0 / direct=1 / weightb=1 / open_gop=0 / weightp=2 / keyint=50 / keyint_min=26 / scenecut=0 / intra_refresh=0 / rc_lookahead=40 / rc=2pass / mbtree=1 / bitrate=5120 / ratetol=1.0 / qcomp=0.60 / qpmin=0 / qpmax=69 / qpstep=4 / cplxblur=20.0 / qblur=0.5 / vbv_maxrate=7680 / vbv_bufsize=20480 / nal_hrd=none / filler=0 / ip_ratio=1.40 / aq=1:1.00
Default : Yes
Forced : No

Audio
ID : 2
Format : AC-3
Format/Info : Audio Coding 3
Codec ID : A_AC3
Duration : 1 h 35 min
Bit rate mode : Constant
Bit rate : 256 kb/s
Channel(s) : 2 channels
Channel positions : Front: L R
Sampling rate : 48.0 kHz
Frame rate : 31.250 FPS (1536 SPF)
Bit depth : 16 bits
Compression mode : Lossy
Stream size : 175 MiB (5%)
Language : French
Service kind : Complete Main
Default : Yes
Forced : No



Скачать Закон.джунглей.La.loi.de.la.jungle.(Antonin.Peretjatko).[2016.комедия.WEB-DLRip].[1080p].[Fre]+[Sub.Rus].torrent без регистрации
Золото ЗОЛОТАЯ РАЗДАЧА! СКАЧАННОЕ НЕ ЗАСЧИТЫВАЕТСЯ! Золото
Дата: Зарегистрирован   [ Тип: внешний ] Как тут cкачать?
MAGNET ссылка
MAGNET ссылка


Скачать .torrent

19 KB

Статус: проверено DHT
Скачан: торрент - 35 раз, раздача полностью - 12 раз
Размер: 3,58 GB
Оценка:  - (Голосов: 0)
Поблагодарили: 2
Поделиться ссылкой на эту раздачу с друзьями:
В контактеFacebookОдноклассникиTwitterLivejournalМой МирLiveinternet
 

 
Показать сообщения:    


Вы не можете начинать темы
Вы не можете отвечать на сообщения
Вы не можете редактировать свои сообщения
Вы не можете удалять свои сообщения
Вы не можете голосовать в опросах
Вы не можете прикреплять файлы к сообщениям
Вы можете скачивать файлы