Loading...
Error

Скачать Вижу лишь тебя / All I See Is You (Марк Форстер) [2016, драма, детектив, BDRip] [1080p] [Dub (лицензия iTunes)]+[Eng] торрент без регистрации

Статистика раздачи
Размер:  8,24 GB   |    Скачан:  41 раз
Сидов:  2  [  0 KB/s  ]  
 
 
 
Автор Сообщение

МихаНЕзатор

[] 

Название: Вижу лишь тебя
Оригинальное название: All I See Is You
Год выпуска: 2016
Жанр: Драма, детектив
Выпущено: Таиланд, США, SC Films International
Режиссер: Марк Форстер

В ролях: Блэйк Лайвли, Джейсон Кларк, Ивонн Страховски, Ана О’Райли, Микель Фернандес, Хави Санчес, Уэс Чэтэм, Дэнни Хьюстон, Кэйтлин Орем, Стэйси Ватанапан

О фильме: Джина ослепла в детстве в результате несчастного случая. Однако слепота не помешала ей выйти замуж и быть счастливой в браке. На очередном приеме у офтальмолога они с мужем узнают, что можно использовать новые методы лечения, и есть большая вероятность, что она прозреет. Любящий муж оплачивает операцию, проходит месяц, бинты сняты, и перед Джиной распахивается мир со всеми красками бытия. Девушка стремится открыть для себя то, чего раньше была лишена и что теперь кажется таким доступным. В том числе и отношения с мужчинами. Пробудившаяся сексуальность не радует ее мужа Джеймса, готового на что угодно, только бы она по-прежнему целиком и полностью зависела от него, видела бы лишь его...



Качество: BDRip 1080p
Видео: MPEG-4 AVC, MKV, 8838 Кбит/с, 1920x800
Аудио#1: русский: AC3, 6 ch, 384 Кбит/с
Аудио#2: английский: DTS, 6 ch, 1509 Кбит/с
Продолжительность: 01:49:55
Перевод: Дублированный | [iTunes]

АНОНСЫ ПОПУЛЯРНЫХ РАЗДАЧ
General
Unique ID : 202293441575917684801749201966254321228 (0x98304CB711D3B4E48CD84D9EA800EE4C)
Complete name : C:UsersВDownloadsVideoВижу лишь тебя.2O16.D.BDRip.1O8Op.mkv
Format : Matroska
Format version : Version 2
File size : 8.24 GiB
Duration : 1 h 49 min
Overall bit rate : 10.7 Mb/s
Encoded date : UTC 2018-02-03 16:12:21
Writing application : mkvmerge v8.3.0 ('Over the Horizon') 64bit
Writing library : libebml v1.3.1 + libmatroska v1.4.2

Video
ID : 1
Format : AVC
Format/Info : Advanced Video Codec
Format profile : High@L4.1
Format settings, CABAC : Yes
Format settings, ReFrames : 5 frames
Codec ID : V_MPEG4/ISO/AVC
Duration : 1 h 49 min
Bit rate : 8 838 kb/s
Width : 1 920 pixels
Height : 800 pixels
Display aspect ratio : 2.40:1
Frame rate mode : Constant
Frame rate : 23.976 FPS
Color space : YUV
Chroma subsampling : 4:2:0
Bit depth : 8 bits
Scan type : Progressive
Bits/(Pixel*Frame) : 0.240
Stream size : 6.78 GiB (82%)
Writing library : x264 core 155 r2901 7d0ff22
Encoding settings : cabac=1 / ref=5 / deblock=1:0:0 / analyse=0x3:0x133 / me=umh / subme=7 / psy=1 / psy_rd=1.00:0.00 / mixed_ref=1 / me_range=16 / chroma_me=1 / trellis=1 / 8x8dct=1 / cqm=0 / deadzone=21,11 / fast_pskip=0 / chroma_qp_offset=-2 / threads=24 / lookahead_threads=4 / sliced_threads=0 / nr=0 / decimate=1 / interlaced=0 / bluray_compat=0 / constrained_intra=0 / bframes=3 / b_pyramid=2 / b_adapt=1 / b_bias=0 / direct=1 / weightb=1 / open_gop=0 / weightp=2 / keyint=250 / keyint_min=23 / scenecut=40 / intra_refresh=0 / rc_lookahead=40 / rc=2pass / mbtree=1 / bitrate=8838 / ratetol=1.0 / qcomp=0.60 / qpmin=0 / qpmax=69 / qpstep=4 / cplxblur=20.0 / qblur=0.5 / ip_ratio=1.40 / aq=1:1.00
Language : English
Default : Yes
Forced : No

Audio #1
ID : 2
Format : AC-3
Format/Info : Audio Coding 3
Mode extension : CM (complete main)
Format settings, Endianness : Big
Codec ID : A_AC3
Duration : 1 h 49 min
Bit rate mode : Constant
Bit rate : 384 kb/s
Channel(s) : 6 channels
Channel positions : Front: L C R, Side: L R, LFE
Sampling rate : 48.0 kHz
Frame rate : 31.250 FPS (1536 spf)
Bit depth : 16 bits
Compression mode : Lossy
Stream size : 302 MiB (4%)
Default : No
Forced : No

Audio #2
ID : 3
Format : DTS
Format/Info : Digital Theater Systems
Mode : 16
Format settings, Endianness : Big
Codec ID : A_DTS
Duration : 1 h 49 min
Bit rate mode : Constant
Bit rate : 1 509 kb/s
Channel(s) : 6 channels
Channel positions : Front: L C R, Side: L R, LFE
Sampling rate : 48.0 kHz
Frame rate : 93.750 FPS (512 spf)
Bit depth : 24 bits
Compression mode : Lossy
Stream size : 1.16 GiB (14%)
Language : English
Default : No
Forced : No

Menu
00:00:00.000 : en:00:00:00.000
00:05:16.066 : en:00:05:16.066
00:10:05.647 : en:00:10:05.647
00:14:42.131 : en:00:14:42.131
00:19:11.859 : en:00:19:11.859
00:23:30.367 : en:00:23:30.367
00:30:42.507 : en:00:30:42.507
00:38:01.488 : en:00:38:01.488
00:41:29.237 : en:00:41:29.237
00:46:59.025 : en:00:46:59.025
00:52:29.980 : en:00:52:29.980
00:57:11.386 : en:00:57:11.386
01:02:43.301 : en:01:02:43.301
01:07:55.822 : en:01:07:55.822
01:13:51.594 : en:01:13:51.594
01:16:58.197 : en:01:16:58.197
01:21:53.158 : en:01:21:53.158
01:27:12.144 : en:01:27:12.144
01:35:52.914 : en:01:35:52.914
01:41:26.122 : en:01:41:26.122



Скачать Вижу.лишь.тебя.All.I.See.Is.You.(Марк.Форстер).[2016.драма.детектив.BDRip].[1080p].[Dub.(лицензия.iTunes)]+[Eng].torrent без регистрации
Золото ЗОЛОТАЯ РАЗДАЧА! СКАЧАННОЕ НЕ ЗАСЧИТЫВАЕТСЯ! Золото
Дата: Зарегистрирован   [ Тип: внешний ] Как тут cкачать?
MAGNET ссылка
MAGNET ссылка


Скачать .torrent

22 KB

Статус: проверено DHT
Скачан: торрент - 41 раз, раздача полностью - 23 раз
Размер: 8,24 GB
Оценка:  - (Голосов: 0)
Поблагодарили: 1
Поделиться ссылкой на эту раздачу с друзьями:
В контактеFacebookОдноклассникиTwitterLivejournalМой МирLiveinternet
 

 
Показать сообщения:    


Вы не можете начинать темы
Вы не можете отвечать на сообщения
Вы не можете редактировать свои сообщения
Вы не можете удалять свои сообщения
Вы не можете голосовать в опросах
Вы не можете прикреплять файлы к сообщениям
Вы можете скачивать файлы