Loading...
Error

Скачать Тор: Рагнарёк / Thor: Ragnarok (Тайка Вайтити) [2017, фантастика, боевик, комедия, приключения, WEB-DLRip] [Dub (Line)] торрент без регистрации

Статистика раздачи
Размер:  1,46 GB   |    Скачан:  263 раза
Сидов:  1230  [  0 KB/s  ]  
 
 
 
Автор Сообщение

МихаНЕзатор

[] 

Информация о фильме
Название: Тор: Рагнарёк
Оригинальное название: Thor: Ragnarok
Год выпуска: 2017
Страна: США
Жанр: фантастика, боевик, комедия, приключения
Режиссер: Тайка Вайтити

В ролях: Крис Хемсворт (Thor), Том Хиддлстон (Loki), Кейт Бланшетт (Hela), Идрис Эльба (Heimdall), Джефф Голдблюм (Grandmaster), Тесса Томпсон (Valkyrie), Карл Урбан (Skurge), Марк Руффало (Bruce Banner / Hulk), Энтони Хопкинс (Odin), Бенедикт Камбербэтч (Doctor Strange), Тайка Вайтити (Korg, озвучка), Рэйчел Хаус (Topaz)

Описание: Вернувшись в Асгард в поисках таинственного врага, ведущего охоту на Камни Бесконечности, Тор обнаруживает, что действия его брата Локи, захватившего трон Асгарда, привели к приближению наиболее страшного события - Рагнарёка. По легенде это ознаменует последнюю битву Асгарда, последствием которой станет его полное уничтожение. В попытке предотвратить это событие Тору предстоит прибегнуть к помощи своего товарища из Мстителей - Халка. Вместе им предстоит столкнуться лицом к лицу со злейшим врагом всех девяти миров - огненным демоном Суртуром, целью которого является исполнение пророчества о Рагнарёке и уничтожение девяти миров.


MPAA: PG-13 - Детям до 13 лет просмотр не желателен

Продолжительность: 02:10:44
Перевод: Дубляж - [Чистый звук]
Субтитры: Русские (полные, внешние)
Примечание: Релиз без рекламы

Качество: WEB-DLRip
Формат: AVI
Видео: XviD, 720x304 (2.35:1), 1393 kbps, 23,976 fps, 0,266 bpp
Аудио: AC3 / 2.0 / 48 kHz / 192 kbps /

АНОНСЫ ПОПУЛЯРНЫХ РАЗДАЧ

General
Complete name : E:Tor.Ragnarek.2017.WEB-DLRip.LineTor.Ragnarek.2017.WEB-DLRip.Line.avi
Format : AVI
Format/Info : Audio Video Interleave
File size : 1.46 GiB
Duration : 2 h 10 min
Overall bit rate : 1 595 kb/s
Writing application : VirtualDubModRus 1.5.10.2 (build 2542/release)
Writing library : VirtualDubMod build 2542/release

Video
ID : 0
Format : MPEG-4 Visual
Format profile : Advanced Simple@L5
Format settings, BVOP : 2
Format settings, QPel : No
Format settings, GMC : No warppoints
Format settings, Matrix : Custom
Codec ID : XVID
Codec ID/Hint : XviD
Duration : 2 h 10 min
Bit rate : 1 394 kb/s
Width : 720 pixels
Height : 304 pixels
Display aspect ratio : 2.35:1
Frame rate : 23.976 (24000/1001) FPS
Color space : YUV
Chroma subsampling : 4:2:0
Bit depth : 8 bits
Scan type : Progressive
Compression mode : Lossy
Bits/(Pixel*Frame) : 0.266
Stream size : 1.27 GiB (87%)
Writing library : XviD 73

Audio
ID : 1
Format : AC-3
Format/Info : Audio Coding 3
Mode extension : CM (complete main)
Format settings, Endianness : Big
Codec ID : 2000
Duration : 2 h 10 min
Bit rate mode : Constant
Bit rate : 192 kb/s
Channel(s) : 2 channels
Channel positions : Front: L R
Sampling rate : 48.0 kHz
Frame rate : 31.250 FPS (1536 spf)
Compression mode : Lossy
Stream size : 180 MiB (12%)
Alignment : Split accross interleaves
Interleave, duration : 42 ms (1.00 video frame)
Interleave, preload duration : 500 ms



Скачать Тор.Рагнарёк.Thor.Ragnarok.(Тайка.Вайтити).[2017.фантастика.боевик.комедия.приключения.WEB-DLRip].[Dub.(Line)].torrent без регистрации
Золото ЗОЛОТАЯ РАЗДАЧА! СКАЧАННОЕ НЕ ЗАСЧИТЫВАЕТСЯ! Золото
Дата: Зарегистрирован   [ Тип: внешний ] Как тут cкачать?
MAGNET ссылка
MAGNET ссылка


Скачать .torrent

16 KB

Статус: проверено DHT
Скачан: торрент - 263 раз, раздача полностью - 391 раз
Размер: 1,46 GB
Оценка:  5 (Голосов: 4)
Поблагодарили: 11
Поделиться ссылкой на эту раздачу с друзьями:
В контактеFacebookОдноклассникиTwitterLivejournalМой МирLiveinternet
 

 
Показать сообщения:    


Вы не можете начинать темы
Вы не можете отвечать на сообщения
Вы не можете редактировать свои сообщения
Вы не можете удалять свои сообщения
Вы не можете голосовать в опросах
Вы не можете прикреплять файлы к сообщениям
Вы можете скачивать файлы