Loading...
Error

Скачать Люди в черном / Men in Black (Бэрри Зонненфельд) [1997, фантастика, боевик, комедия, комикс, UHD BDRemux] [2160p] [4K] [HDR] [Dub]+[MVO]x2+[AVO]x2+[Eng]x2+[Sub Rus, Eng]x2 торрент без регистрации

Статистика раздачи
Размер:  43,65 GB   |    Скачан:  12 раз
Сидов:  5  [  0 KB/s  ]   Личеров:  1  [  0 KB/s  ]  
 
 
 
Автор Сообщение

Marsianka

[] 

Информация о фильме
Название: Люди в черном
Оригинальное название: Men in Black
Год выхода: 1997
Жанр: фантастика, боевик, комедия, комикс
Режиссер: Бэрри Зонненфельд
В ролях: Томми Ли Джонс, Уилл Смит, Винсент Д`Онофрио, Линда Фиорентино, Рип Торн, Тони Шэлоуб, Шиван Фэллон, Майк Нассбаум, Джон Грайз, Фредрик Лен, Серхио Кальдерон, Карел Стрёйкен, Ричард Хэмилтон, Кент Фалкон, Джон Александр, Кит Кэмпбелл, Кен Торли, Патрик Брин, Бекки Энн Бэйкер, Шон Уэйлен, Харш Найяр, Майкл Уиллис, Уилли С. Карпентер, Питер Линари, Дэвид Кросс, Чарльз С. Стивенсон мл., Борис Лёскин, Стив Рэнкин

О фильме:
Они — самый большой секрет Земли. Они работают на неофициальное правительственное агентство, регулирующее деятельность инопланетян на Земле. Они — это лучшая, последняя и единственная линия защиты Земли от отбросов вселенной. Их работа секретна, их оружие совершенно, им нет равных, они не оставляют следов. Они — это Люди в черном.



Страна: США
Студия: Amblin Entertainment, Columbia Pictures Corporation, MacDonald/Parkes Productions
Продолжительность: 01:37:58
Перевод: Дублированный, профессиональный многоголосый, авторский

Файл
Кодек: H.265
Качество: UHD BDRemux 2160p
Видео: MPEG-H HEVC HDR, 3840x2160, 49.2 Mбит/с, 23.976 кадр/с

Русский (AC3, 6 ch, 640 Кбит/с) / дублированный (EUR Blu-ray)
Русский (DTS-HD MA, 6 ch, 2336 Кбит/с) / профессиональный многоголосый (Карусель)
Русский (AC3, 6 ch, 448 Кбит/с) / профессиональный многоголосый (R5)
Русский (DTS-HD MA, 6 ch, 2336 Кбит/с) / Авторский (Ю.Живов)
Русский (DTS-HD MA, 6 ch, 2336 Кбит/с) / Авторский (А. Гаврилов)
Английский (TrueHD+Atmos, 8 ch, 5779 Кбит/с)
Английский (AC3, 6 ch, 640 Кбит/с)
Субтитры: Русские (форсированные, полные), английские
Семпл
General
Unique ID : 61678706275498169183445430965468597980 (0x2E66E3010BACD90390CD5A27EED30EDC)
Complete name : D:uTorrentLjudi.v.chjernom.1997.2160p.HEVC.UHD.HDR.MediaClub.mkv
Format : Matroska
Format version : Version 4 / Version 2
File size : 43.6 GiB
Duration : 1 h 37 min
Overall bit rate mode : Variable
Overall bit rate : 63.8 Mb/s
Encoded date : UTC 2018-02-04 11:47:14
Writing application : mkvmerge v19.0.0 ('Brave Captain') 64-bit
Writing library : libebml v1.3.5 + libmatroska v1.4.8
Cover : Yes
Attachments : cover.jpg

Video
ID : 1
Format : HEVC
Format/Info : High Efficiency Video Coding
Format profile : Main 10@L5.1@High
Codec ID : V_MPEGH/ISO/HEVC
Duration : 1 h 37 min
Bit rate : 49.2 Mb/s
Width : 3 840 pixels
Height : 2 160 pixels
Display aspect ratio : 16:9
Frame rate mode : Constant
Frame rate : 23.976 (24000/1001) FPS
Color space : YUV
Chroma subsampling : 4:2:0 (Type 2)
Bit depth : 10 bits
Bits/(Pixel*Frame) : 0.247
Stream size : 33.7 GiB (77%)
Title : BDRemux, 20160p, HEVC, UDH, HDR by Silverok
Default : Yes
Forced : No
Color range : Limited
Color primaries : BT.2020
Transfer characteristics : PQ
Matrix coefficients : BT.2020 non-constant
Mastering display color primaries : Display P3
Mastering display luminance : min: 0.0050 cd/m2, max: 4000 cd/m2
Maximum Content Light Level : 3955 cd/m2
Maximum Frame-Average Light Level : 584 cd/m2

Audio #1
ID : 2
Format : AC-3
Format/Info : Audio Coding 3
Codec ID : A_AC3
Duration : 1 h 37 min
Bit rate mode : Constant
Bit rate : 640 kb/s
Channel(s) : 6 channels
Channel positions : Front: L C R, Side: L R, LFE
Sampling rate : 48.0 kHz
Frame rate : 31.250 FPS (1536 SPF)
Bit depth : 16 bits
Compression mode : Lossy
Stream size : 448 MiB (1%)
Title : Профессиональный дублированный (EUR Blu-ray)
Language : Russian
Service kind : Complete Main
Default : Yes
Forced : No

Audio #2
ID : 3
Format : DTS
Format/Info : Digital Theater Systems
Format profile : MA / Core
Codec ID : A_DTS
Duration : 1 h 37 min
Bit rate mode : Variable / Constant
Bit rate : 2 336 kb/s / 1 509 kb/s
Channel(s) : 6 channels
Channel positions : Front: L C R, Side: L R, LFE
Sampling rate : 48.0 kHz
Frame rate : 93.750 FPS (512 SPF)
Bit depth : 16 bits
Compression mode : Lossless / Lossy
Stream size : 1.60 GiB (4%)
Title : профессиональный многоголосый (Карусель)
Language : Russian
Default : No
Forced : No

Audio #3
ID : 4
Format : AC-3
Format/Info : Audio Coding 3
Codec ID : A_AC3
Duration : 1 h 37 min
Bit rate mode : Constant
Bit rate : 448 kb/s
Channel(s) : 6 channels
Channel positions : Front: L C R, Side: L R, LFE
Sampling rate : 48.0 kHz
Frame rate : 31.250 FPS (1536 SPF)
Bit depth : 16 bits
Compression mode : Lossy
Stream size : 314 MiB (1%)
Title : профессиональный многоголосый (R5)
Language : Russian
Service kind : Complete Main
Default : No
Forced : No

Audio #4
ID : 5
Format : DTS
Format/Info : Digital Theater Systems
Format profile : MA / Core
Codec ID : A_DTS
Duration : 1 h 37 min
Bit rate mode : Variable / Constant
Bit rate : 2 338 kb/s / 1 509 kb/s
Channel(s) : 6 channels
Channel positions : Front: L C R, Side: L R, LFE
Sampling rate : 48.0 kHz
Frame rate : 93.750 FPS (512 SPF)
Bit depth : 16 bits
Compression mode : Lossless / Lossy
Stream size : 1.60 GiB (4%)
Title : Авторский (Ю.Живов)
Language : Russian
Default : No
Forced : No

Audio #5
ID : 6
Format : DTS
Format/Info : Digital Theater Systems
Format profile : MA / Core
Codec ID : A_DTS
Duration : 1 h 37 min
Bit rate mode : Variable / Constant
Bit rate : 2 340 kb/s / 1 509 kb/s
Channel(s) : 6 channels
Channel positions : Front: L C R, Side: L R, LFE
Sampling rate : 48.0 kHz
Frame rate : 93.750 FPS (512 SPF)
Bit depth : 16 bits
Compression mode : Lossless / Lossy
Stream size : 1.60 GiB (4%)
Title : Авторский (А. Гаврилов)
Language : Russian
Default : No
Forced : No

Audio #6
ID : 7
Format : TrueHD
Format profile : TrueHD+Atmos / TrueHD
Codec ID : A_TRUEHD
Duration : 1 h 37 min
Bit rate mode : Variable
Bit rate : 5 779 kb/s
Maximum bit rate : 8 544 kb/s
Channel(s) : Object Based / 8 channels
Channel positions : Object Based / Front: L C R, Side: L R, Back: L R, LFE
Sampling rate : / 48.0 kHz
Frame rate : 1 200.000 FPS (40 SPF)
Compression mode : Lossless
Stream size : 3.95 GiB (9%)
Language : English
Default : No
Forced : No

Audio #7
ID : 8
Format : AC-3
Format/Info : Audio Coding 3
Codec ID : A_AC3
Duration : 1 h 37 min
Bit rate mode : Constant
Bit rate : 640 kb/s
Channel(s) : 6 channels
Channel positions : Front: L C R, Side: L R, LFE
Sampling rate : 48.0 kHz
Frame rate : 31.250 FPS (1536 SPF)
Bit depth : 16 bits
Compression mode : Lossy
Stream size : 448 MiB (1%)
Language : English
Service kind : Complete Main
Default : No
Forced : No

Text #1
ID : 9
Format : UTF-8
Codec ID : S_TEXT/UTF8
Codec ID/Info : UTF-8 Plain Text
Duration : 37 min 59 s
Bit rate : 4 b/s
Count of elements : 29
Stream size : 1.33 KiB (0%)
Title : Forced
Language : Russian
Default : Yes
Forced : Yes

Text #2
ID : 10
Format : UTF-8
Codec ID : S_TEXT/UTF8
Codec ID/Info : UTF-8 Plain Text
Duration : 1 h 27 min
Bit rate : 91 b/s
Count of elements : 1133
Stream size : 58.7 KiB (0%)
Title : Full
Language : Russian
Default : No
Forced : No

Text #3
ID : 11
Format : UTF-8
Codec ID : S_TEXT/UTF8
Codec ID/Info : UTF-8 Plain Text
Duration : 1 h 27 min
Bit rate : 58 b/s
Count of elements : 1075
Stream size : 37.4 KiB (0%)
Language : English
Default : No
Forced : No

Menu
00:00:00.000 : en:Start
00:09:46.419 : en:Illegal Aliens
00:12:46.807 : en:James Edwards
00:18:12.341 : en:Edgar
00:25:31.446 : en:Kay Takes Over
00:29:14.544 : en:Jeebs
00:37:19.195 : en:Simple Tests
00:43:18.554 : en:Casablanca & Coffee
00:49:58.328 : en:Customs & Gadgets
00:54:29.391 : en:Agent Jay
01:00:51.522 : en:In Grave Danger
01:06:24.689 : en:Mr. and Mrs. Redgick
01:08:55.548 : en:Interviewing Beatrice
01:14:56.909 : en:At the Morgue
01:19:39.149 : en:Little Dude & Big Dude
01:29:49.634 : en:Girl He Left Behind
Релиз от: | Silverok



Скачать Люди.в.черном.Men.in.Black.(Бэрри.Зонненфельд).[1997.фантастика.боевик.комедия.комикс.UHD.BDRemux].[2160p].[4K].[HDR].[Dub]+[MVO]x2+[AVO]x2+[Eng]x2+[Sub.Rus.Eng]x2.torrent без регистрации
Золото ЗОЛОТАЯ РАЗДАЧА! СКАЧАННОЕ НЕ ЗАСЧИТЫВАЕТСЯ! Золото
Дата: Зарегистрирован   [ Тип: внешний ] Как тут cкачать?
MAGNET ссылка
MAGNET ссылка


Скачать .torrent

110 KB

Статус: проверено DHT
Скачан: торрент - 12 раз, раздача полностью - 0 раз
Размер: 43,65 GB
Оценка:  - (Голосов: 0)
Поблагодарили: 0
Поделиться ссылкой на эту раздачу с друзьями:
В контактеFacebookОдноклассникиTwitterLivejournalМой МирLiveinternet
 

 
Показать сообщения:    


Вы не можете начинать темы
Вы не можете отвечать на сообщения
Вы не можете редактировать свои сообщения
Вы не можете удалять свои сообщения
Вы не можете голосовать в опросах
Вы не можете прикреплять файлы к сообщениям
Вы можете скачивать файлы