Loading...
Error

Скачать Тэсс / Tess (Роман Полански) [1979, драма, мелодрама, BDRemux] [1080р] [MVO]+[DVO]x2+[Оригинал Eng]+[Sub Rus, Eng]x2 торрент без регистрации

Статистика раздачи
Размер:  27,14 GB   |    Скачан:  13 раз
Сидов:  1  [  0 KB/s  ]  
 
 
 
Автор Сообщение

Marsianka

[] 

Информация о фильме
Название: Тэсс
Оригинальное название: Tess
Год выхода: 1979
Жанр: драма, мелодрама
Режиссер: Роман Полански
В ролях: Настасья Кински, Питер Ферт, Ли Лоусон, Розмари Мартин, Кэролин Пиклз, Ричард Пирсон, Дэвид Маркам, Паскаль де Буассон, Сюзанна Хэмилтон, Лесли Данлоп, Сильвия Кольридж, Фред Брайант, Дикен Эшворт

Описание: Юная красавица-крестьянка Тэсс неожиданно узнаёт, что в её жилах течёт благородная кровь норманнских рыцарей. По воле родителей девушка уезжает жить к новообретённым состоятельным родственникам. Там она сталкивается с обольстительным кузеном Алеком, который не прочь воспользоваться невинностью Тэсс.



Страна: Великобритания, Франция
Продолжительность: 02:51:39
Перевод 1: Профессиональный (многоголосый закадровый) R5
Перевод 2: Профессиональный (двухголосый закадровый) Екатеринбург Арт
Перевод 3: Профессиональный (двухголосый закадровый) "Селена Интернешнл" по заказу ОРТ
Субтитры: русские, английские
Оригинальная аудиодорожка: английский
Файл
Качество: BDRemux 1080р
Видео: MPEG-4 AVC Video, 1920x1080 at 23.976 fps, 18658 kbps
Аудио 1: Russian: 48 kHz, AC3, 5.1 ch, 384 kbps |Многоголосый закадровый, R5|
Аудио 2: Russian: 48 kHz, AC3, 2.0 ch, 192 kbps |Двухголосый закадровый, Екатеринбург Арт|
Аудио 3: Russian: 48 kHz, AC3, 2.0 ch, 192 kbps |Двухголосый закадровый, ОРТ|
Аудио 4: English: 48 kHz, DTS-HD MA, 5.1 ch, 3267 kbps (DTS Core: 5.1 / 48 kHz / 1509 kbps / 24-bit)
General
Unique ID : 220359822915928797486102638094095803635 (0xA5C7C21613AAB010BA6200EBBAF8E4F3)
Complete name : Tess.1979.Criterion.BDRemux. rutrackеr.mkv
Format : Matroska
Format version : Version 2
File size : 27.1 GiB
Duration : 2h 51mn
Overall bit rate mode : Variable
Overall bit rate : 22.6 Mbps
Movie name : Release for RuTrаcker
Encoded date : UTC 2014-05-14 00:08:17
Writing application : mkvmerge v5.0.1 ('Es ist Sommer') built on Nov 6 2011 16:23:40
Writing library : libebml v1.2.2 + libmatroska v1.3.0

Video
ID : 1
Format : AVC
Format/Info : Advanced Video Codec
Format profile : High@L4.1
Format settings, CABAC : Yes
Format settings, ReFrames : 4 frames
Codec ID : V_MPEG4/ISO/AVC
Duration : 2h 51mn
Bit rate mode : Variable
Maximum bit rate : 37.0 Mbps
Width : 1 920 pixels
Height : 1 080 pixels
Display aspect ratio : 16:9
Frame rate mode : Constant
Frame rate : 23.976 fps
Color space : YUV
Chroma subsampling : 4:2:0
Bit depth : 8 bits
Scan type : Progressive
Title : Tess.1979.Criterion.BDRemux. rutrаckеr
Language : English
Default : Yes
Forced : No

Audio #1
ID : 2
Format : AC-3
Format/Info : Audio Coding 3
Mode extension : CM (complete main)
Format settings, Endianness : Big
Codec ID : A_AC3
Duration : 2h 51mn
Bit rate mode : Constant
Bit rate : 384 Kbps
Channel(s) : 6 channels
Channel positions : Front: L C R, Side: L R, LFE
Sampling rate : 48.0 KHz
Bit depth : 16 bits
Compression mode : Lossy
Stream size : 471 MiB (2%)
Title : mvo,R5
Language : Russian
Default : Yes
Forced : No

Audio #2
ID : 3
Format : AC-3
Format/Info : Audio Coding 3
Mode extension : CM (complete main)
Format settings, Endianness : Big
Codec ID : A_AC3
Duration : 2h 51mn
Bit rate mode : Constant
Bit rate : 192 Kbps
Channel(s) : 2 channels
Channel positions : Front: L R
Sampling rate : 48.0 KHz
Bit depth : 16 bits
Compression mode : Lossy
Stream size : 236 MiB (1%)
Title : dvo, Екатеринбург Арт
Language : Russian
Default : No
Forced : No

Audio #3
ID : 4
Format : AC-3
Format/Info : Audio Coding 3
Mode extension : CM (complete main)
Format settings, Endianness : Big
Codec ID : A_AC3
Duration : 2h 51mn
Bit rate mode : Constant
Bit rate : 192 Kbps
Channel(s) : 2 channels
Channel positions : Front: L R
Sampling rate : 48.0 KHz
Bit depth : 16 bits
Compression mode : Lossy
Stream size : 236 MiB (1%)
Title : dvo, ОРТ
Language : Russian
Default : No
Forced : No

Audio #4
ID : 5
Format : DTS
Format/Info : Digital Theater Systems
Format profile : MA / Core
Mode : 16
Format settings, Endianness : Big
Codec ID : A_DTS
Duration : 2h 51mn
Bit rate mode : Variable
Bit rate : Unknown / 1 509 Kbps
Channel(s) : 6 channels
Channel positions : Front: L C R, Side: L R, LFE
Sampling rate : 48.0 KHz
Bit depth : 24 bits
Compression mode : Lossless / Lossy
Language : English
Default : No
Forced : No

Text #1
ID : 6
Format : UTF-8
Codec ID : S_TEXT/UTF8
Codec ID/Info : UTF-8 Plain Text
Language : Russian
Default : No
Forced : No

Text #2
ID : 7
Format : UTF-8
Codec ID : S_TEXT/UTF8
Codec ID/Info : UTF-8 Plain Text
Language : English
Default : No
Forced : No

Menu
00:00:00.000 : :1
00:07:34.287 : :2
00:11:32.024 : :3
00:15:42.399 : :4
00:23:49.511 : :5
00:32:34.953 : :6
00:42:06.857 : :7
00:45:18.549 : :8
00:54:03.448 : :9
01:00:41.721 : :10
01:04:15.268 : :11
01:11:56.145 : :12
01:18:44.886 : :13
01:27:37.043 : :14
01:44:36.144 : :15
01:51:15.710 : :16
02:00:24.300 : :17
02:05:13.923 : :18
02:12:23.644 : :19
02:23:49.454 : :20
02:30:05.204 : :21
02:37:30.149 : :22
02:44:24.980 : :23
02:50:24.422 : :24



Скачать Тэсс.Tess.(Роман.Полански).[1979.драма.мелодрама.BDRemux].[1080р].[MVO]+[DVO]x2+[Оригинал.Eng]+[Sub.Rus.Eng]x2.torrent без регистрации
Золото ЗОЛОТАЯ РАЗДАЧА! СКАЧАННОЕ НЕ ЗАСЧИТЫВАЕТСЯ! Золото
Дата: Зарегистрирован   [ Тип: внутренний ] Как тут cкачать?
MAGNET ссылка
MAGNET ссылка


Скачать .torrent

137 KB

Статус: проверено DHT
Скачан: торрент - 13 раз, раздача полностью - 0 раз
Размер: 27,14 GB
Оценка:  - (Голосов: 0)
Поблагодарили: 0
Поделиться ссылкой на эту раздачу с друзьями:
В контактеFacebookОдноклассникиTwitterLivejournalМой МирLiveinternet
 

 
Показать сообщения:    


Вы не можете начинать темы
Вы не можете отвечать на сообщения
Вы не можете редактировать свои сообщения
Вы не можете удалять свои сообщения
Вы не можете голосовать в опросах
Вы не можете прикреплять файлы к сообщениям
Вы можете скачивать файлы