Loading...
Error

Скачать История с привидениями / Ghost Story (Джон Ирвин) [1981, ужасы, триллер, драма, BDRip-AVC] [MVO]x2+[Оригинал Eng]+[Sub Eng] торрент без регистрации

Статистика раздачи
Размер:  2,6 GB   |    Скачан:  17 раз
Сидов:  1  [  0 KB/s  ]  
 
 
 
Автор Сообщение

Marsianka

[] 

Информация о фильме
Название: История с привидениями
Оригинальное название: Ghost Story
Год выпуска: 1981
Страна: США
Жанр: ужасы, триллер, драма
Перевод: Профессиональный [многоголосый]
Субтитры: английские (full)
Продолжительность: 01:50:47
Режиссер: Джон Ирвин
В ролях:

Фред Астер (Ricky Hawthorne), Мелвин Дуглас (Dr. John Jaffrey), Дуглас Фэрбенкс мл. (Edward Charles Wanderley), Джон Хаусмен (Sears James), Крейг Уоссон (Don Wanderley / David Wanderley), Патриция Нил (Stella Hawthorne), Элис Крайдж (Eva Galli / Alma Mobley), Жаклин Брукс (Milly), Мигель Фернандес (Gregory Bate), Лэнс Холкомб (Fenny Bate), Марк Чамберлен (Young Jaffrey), Тим Чоут (Young Hawthorne)
Описание:
Что требуется для того, чтобы напугаться по-настоящему? Мрачный дом в Новой Англии, темная ночь, завывание ветра и четыре человека из так называемого «Общества Похлебки», где принято развлекать друг друга страшными историями.
Рейтинг:

MPAA: R - Лицам до 17 лет обязательно присутствие взрослого
Качество: BDRip-AVC
Формат: MKV
Видео: AVC, 1024x556 (1.85:1), 2780 kbps, 23,976 fps, 0,204 bpp
Аудио №1: русский / AC3 / 2.0 / 48 kHz / 192 kbps / Многоголосый закадровый, R5
Аудио №2: украинский / AC3 / 2.0 / 48 kHz / 192 kbps / Многоголосый закадровый, НЛО-TV
Аудио №3: английский / AC3 / 2.0 / 48 kHz / 192 kbps / Оригинал
Навигация по главам: есть
Релиз от:

General
Unique ID : 229414767258687427681648192959076555757 (0xAC97AD4F883758149EEE38691C8EDBED)
Complete name : D:downloadGhost Story.1981.BDRip-AVC by schultz R.G.Resident.mkv
Format : Matroska
Format version : Version 4 / Version 2
File size : 2.60 GiB
Duration : 1 h 50 min
Overall bit rate : 3 357 kb/s
Encoded date : UTC 2018-02-06 09:02:33
Writing application : mkvmerge v8.9.0 ('Father Daughter') 64bit
Writing library : libebml v1.3.3 + libmatroska v1.4.4

Video
ID : 1
Format : AVC
Format/Info : Advanced Video Codec
Format profile : High@L4.1
Format settings, CABAC : Yes
Format settings, ReFrames : 10 frames
Codec ID : V_MPEG4/ISO/AVC
Duration : 1 h 50 min
Bit rate : 2 780 kb/s
Width : 1 024 pixels
Height : 556 pixels
Display aspect ratio : 1.85:1
Frame rate mode : Constant
Frame rate : 23.976 FPS
Color space : YUV
Chroma subsampling : 4:2:0
Bit depth : 8 bits
Scan type : Progressive
Bits/(Pixel*Frame) : 0.204
Stream size : 2.15 GiB (83%)
Writing library : x264 core 146 r2538 121396c
Encoding settings : cabac=1 / ref=10 / deblock=1:-3:-3 / analyse=0x3:0 / me=umh / subme=11 / psy=1 / psy_rd=1.00:0.00 / mixed_ref=1 / me_range=32 / chroma_me=1 / trellis=2 / 8x8dct=1 / cqm=0 / deadzone=21,11 / fast_pskip=0 / chroma_qp_offset=-2 / threads=12 / lookahead_threads=3 / sliced_threads=0 / nr=0 / decimate=0 / interlaced=0 / bluray_compat=0 / constrained_intra=0 / bframes=11 / b_pyramid=2 / b_adapt=2 / b_bias=0 / direct=3 / weightb=1 / open_gop=0 / weightp=2 / keyint=240 / keyint_min=23 / scenecut=40 / intra_refresh=0 / rc_lookahead=40 / rc=2pass / mbtree=0 / bitrate=2780 / ratetol=1.0 / qcomp=0.60 / qpmin=0 / qpmax=69 / qpstep=4 / cplxblur=20.0 / qblur=0.5 / vbv_maxrate=50000 / vbv_bufsize=62500 / nal_hrd=none / filler=0 / ip_ratio=1.40 / pb_ratio=1.30 / aq=1:1.00
Language : English
Default : Yes
Forced : No

Audio #1
ID : 2
Format : AC-3
Format/Info : Audio Coding 3
Mode extension : CM (complete main)
Format settings, Endianness : Big
Codec ID : A_AC3
Duration : 1 h 50 min
Bit rate mode : Constant
Bit rate : 192 kb/s
Channel(s) : 2 channels
Channel positions : Front: L R
Sampling rate : 48.0 kHz
Frame rate : 31.250 FPS (1536 spf)
Compression mode : Lossy
Stream size : 152 MiB (6%)
Title : Многоголосый закадровый, R5
Language : Russian
Default : Yes
Forced : No

Audio #2
ID : 3
Format : AC-3
Format/Info : Audio Coding 3
Mode extension : CM (complete main)
Format settings, Endianness : Big
Codec ID : A_AC3
Duration : 1 h 50 min
Bit rate mode : Constant
Bit rate : 192 kb/s
Channel(s) : 2 channels
Channel positions : Front: L R
Sampling rate : 48.0 kHz
Frame rate : 31.250 FPS (1536 spf)
Compression mode : Lossy
Stream size : 152 MiB (6%)
Title : Многоголосый закадровый, НЛО-TV
Language : Ukrainian
Default : No
Forced : No

Audio #3
ID : 4
Format : AC-3
Format/Info : Audio Coding 3
Mode extension : CM (complete main)
Format settings, Endianness : Big
Codec ID : A_AC3
Duration : 1 h 50 min
Bit rate mode : Constant
Bit rate : 192 kb/s
Channel(s) : 2 channels
Channel positions : Front: L R
Sampling rate : 48.0 kHz
Frame rate : 31.250 FPS (1536 spf)
Compression mode : Lossy
Stream size : 152 MiB (6%)
Title : Оригинал
Language : English
Default : No
Forced : No

Text
ID : 5
Format : UTF-8
Codec ID : S_TEXT/UTF8
Codec ID/Info : UTF-8 Plain Text
Duration : 1 h 47 min
Bit rate : 37 b/s
Count of elements : 960
Stream size : 29.4 KiB (0%)
Title : full
Language : English
Default : No
Forced : No

Menu
00:00:00.000 : en:Chapter 1
00:15:27.509 : en:Chapter 2
00:29:45.784 : en:Chapter 3
00:44:48.393 : en:Chapter 4
01:02:22.195 : en:Chapter 5
01:17:11.917 : en:Chapter 6
01:32:52.233 : en:Chapter 7
01:47:57.636 : en:Chapter 8



Скачать История.с.привидениями.Ghost.Story.(Джон.Ирвин).[1981.ужасы.триллер.драма.BDRip-AVC].[MVO]x2+[Оригинал.Eng]+[Sub.Eng].torrent без регистрации
Золото ЗОЛОТАЯ РАЗДАЧА! СКАЧАННОЕ НЕ ЗАСЧИТЫВАЕТСЯ! Золото
Дата: Зарегистрирован   [ Тип: внутренний ] Как тут cкачать?
MAGNET ссылка
MAGNET ссылка


Скачать .torrent

14 KB

Статус: проверено DHT
Скачан: торрент - 17 раз, раздача полностью - 11 раз
Размер: 2,6 GB
Оценка:  - (Голосов: 0)
Поблагодарили: 1
Поделиться ссылкой на эту раздачу с друзьями:
В контактеFacebookОдноклассникиTwitterLivejournalМой МирLiveinternet
 

 
Показать сообщения:    


Вы не можете начинать темы
Вы не можете отвечать на сообщения
Вы не можете редактировать свои сообщения
Вы не можете удалять свои сообщения
Вы не можете голосовать в опросах
Вы не можете прикреплять файлы к сообщениям
Вы можете скачивать файлы