Loading...
Error

Скачать Чёрная дыра / Pitch Black (Дэвид Туи) [2000, ужасы, фантастика, WEB-DLRip-AVC] [Theatrical Cut] [Open Matte] [Dub (R5)]+[Sub Rus, Eng]x2 торрент без регистрации

Статистика раздачи
Размер:  2,47 GB   |    Скачан:  12 раз
Сидов:  2  [  0 KB/s  ]  
 
 
 
Автор Сообщение

Marsianka

[] 

Информация о фильме
Название: Чёрная дыра
Оригинальное название: Pitch Black
Год выпуска: 2000
Жанр: ужасы, фантастика
Режиссер: Дэвид Туи
В ролях: Вин Дизель (Richard B. Riddick), Рада Митчелл (Carolyn Fry), Коул Хаузер (William J. Johns), Кит Дэвид (Abu «Imam» al-Walid), Льюис Фиц-Джералд (Paris P. Ogilvie), Клаудия Блэк (Sharon «Shazza» Montgomery), Риана Гриффит (Jack / Jackie), Джон Мур (John «Zeke» Ezekiel), Саймон Бурк (Greg Owens), Лес Чэнтери (Suleiman), Сэм Сари (Hassan), Фирэсс Дирани (Ali)

О фильме:
В недалеком будущем космический корабль терпит бедствие, в результате чего совершает вынужденную посадку на отдаленной планете. Но в результате такой посадки погибает командир корабля, часть команды и большинство пассажиров.

Оставшиеся в живых оказываются одни на жуткой и безжизненной планете. Первое, что бросается в глаза — это то, что планета имеет три солнца, из-за чего все живое погибает в этой пустыне. Но как только планета погружается в темноту, появляются какие-то странные существа…



Страна: США
Студия: PolyGram Filmed Entertainment
Продолжительность: 01:48:22
Перевод: Профессиональный (дублированный) R5

Файл
Качество: WEB-DLRip-AVC | Open Matte
Формат: Matroska
Видео: 1024x576 at 23.976 fps, High@L4.1, ~2752 kbps
Аудио1: 48 kHz, AC3, 3/2 (L,C,R,l,r) + LFE ch, ~448 kbps
Субтитры: Russian, English
x264 info: frame I:1220 Avg QP:14.68 size: 83058
x264 info: frame P:37860 Avg QP:18.27 size: 25846
x264 info: frame B:116816 Avg QP:19.74 size: 10329
x264 info: consecutive B-frames: 3.2% 4.0% 9.0% 31.5% 18.0% 26.2% 3.7% 2.0% 0.8% 0.5% 0.2% 0.3% 0.7%

General
Unique ID : 36465317694626873157200115358369842933 (0x1B6EF6F8697E3745BDE8B0796BB006F5)
Complete name : F:FILMSЧёрная дыра_2000_O.M_DUB_WEB_DLRIP-AVC_[-=DoMiNo=-].mkv
Format : Matroska
Format version : Version 4 / Version 2
File size : 2.47 GiB
Duration : 1 h 48 min
Overall bit rate : 3 265 kb/s
Movie name : Чёрная дыра
Deion : В недалеком будущем космический корабль терпит бедствие, в результате чего совершает вынужденную посадку на отдаленной планете. Но в результате такой посадки погибает командир корабля, часть команды и большинство пассажиров. / / Оставшиеся в живых оказываются одни на жуткой и безжизненной планете. Первое, что бросается в глаза — это то, что планета имеет три солнца, из-за чего все живое погибает в этой пустыне. Но как только планета погружается в темноту, появляются какие-то странные существа…
Writing application : XviD4PSP 7.0.441 DAILY
Writing library : Lavf57.71.100
ErrorDetectionType : Per level 1
Attachments : poster.jpg
ACTORS : Вин Дизель, Рада Митчелл, Коул Хаузер, Кит Дэвид, Льюис Фиц-Джералд, Клаудия Блэк, Риана Гриффит, Джон Мур, Саймон Бурк, Лес Чэнтери, Сэм Сари, Фирэсс Дирани, Рик Андерсон, Вик Уилсон, Анджела Макин, Питер Чианг, Кен Твохи
COMPOSER : Грэм Ревелл
DATE : 1999
DIRECTOR : Дэвид Туи
GENRE : ужасы, фантастика
HD_VIDEO : 1
Language : und
MEDIA_TYPE : 9
ORIGINAL_TITLE : Pitch Black
PRODUCER : Том Энгелман, Тед Филд, Скотт Крупф, Тони Уинли
WRITER : Джим Уит, Кен Уит, Дэвид Туи

Video
ID : 1
Format : AVC
Format/Info : Advanced Video Codec
Format profile : High@L4.1
Format settings : CABAC / 11 Ref Frames
Format settings, CABAC : Yes
Format settings, ReFrames : 11 frames
Codec ID : V_MPEG4/ISO/AVC
Duration : 1 h 48 min
Bit rate : 2 752 kb/s
Width : 1 024 pixels
Height : 576 pixels
Display aspect ratio : 16:9
Frame rate mode : Constant
Frame rate : 23.976 (24000/1001) FPS
Color space : YUV
Chroma subsampling : 4:2:0
Bit depth : 8 bits
Scan type : Progressive
Bits/(Pixel*Frame) : 0.195
Stream size : 2.08 GiB (84%)
Title : RIP_BY_-=DoMiNo=-
Writing library : x264 core 155 r2901M 7d0ff22
Encoding settings : cabac=1 / ref=11 / deblock=1:-3:-3 / analyse=0x3:0x133 / me=umh / subme=11 / psy=1 / psy_rd=1.00:0.01 / mixed_ref=1 / me_range=32 / chroma_me=1 / trellis=2 / 8x8dct=1 / cqm=0 / deadzone=21,11 / fast_pskip=1 / chroma_qp_offset=-3 / threads=6 / lookahead_threads=1 / sliced_threads=0 / nr=0 / decimate=1 / interlaced=0 / bluray_compat=0 / constrained_intra=0 / bframes=12 / b_pyramid=2 / b_adapt=2 / b_bias=0 / direct=3 / weightb=1 / open_gop=0 / weightp=2 / keyint=240 / keyint_min=24 / scenecut=40 / intra_refresh=0 / rc_lookahead=60 / rc=crf / mbtree=1 / crf=18.0 / qcomp=0.60 / qpmin=0 / qpmax=69 / qpstep=4 / ip_ratio=1.40 / aq=1:1.00
Language : English
Default : Yes
Forced : No
Color range : Limited
Color primaries : BT.709
Transfer characteristics : BT.709
Matrix coefficients : BT.709

Audio
ID : 2
Format : AC-3
Format/Info : Audio Coding 3
Codec ID : A_AC3
Duration : 1 h 48 min
Bit rate mode : Constant
Bit rate : 448 kb/s
Channel(s) : 6 channels
Channel positions : Front: L C R, Side: L R, LFE
Sampling rate : 48.0 kHz
Frame rate : 31.250 FPS (1536 SPF)
Bit depth : 16 bits
Compression mode : Lossy
Stream size : 347 MiB (14%)
Title : AC3 5.1 448Kbps (Дубляж - R5)
Language : Russian
Service kind : Complete Main
Default : Yes
Forced : No

Text #1
ID : 3
Format : UTF-8
Codec ID : S_TEXT/UTF8
Codec ID/Info : UTF-8 Plain Text
Title : R5
Language : Russian
Default : Yes
Forced : No

Text #2
ID : 4
Format : UTF-8
Codec ID : S_TEXT/UTF8
Codec ID/Info : UTF-8 Plain Text
Title : SDH, Amazon
Language : English
Default : No
Forced : No



Скачать Чёрная.дыра.Pitch.Black.(Дэвид.Туи).[2000.ужасы.фантастика.WEB-DLRip-AVC].[Theatrical.Cut].[Open.Matte].[Dub.(R5)]+[Sub.Rus.Eng]x2.torrent без регистрации
Золото ЗОЛОТАЯ РАЗДАЧА! СКАЧАННОЕ НЕ ЗАСЧИТЫВАЕТСЯ! Золото
Дата: Зарегистрирован   [ Тип: внешний ] Как тут cкачать?
MAGNET ссылка
MAGNET ссылка


Скачать .torrent

13 KB

Статус: проверено DHT
Скачан: торрент - 12 раз, раздача полностью - 8 раз
Размер: 2,47 GB
Оценка:  - (Голосов: 0)
Поблагодарили: 0
Поделиться ссылкой на эту раздачу с друзьями:
В контактеFacebookОдноклассникиTwitterLivejournalМой МирLiveinternet
 

 
Показать сообщения:    


Вы не можете начинать темы
Вы не можете отвечать на сообщения
Вы не можете редактировать свои сообщения
Вы не можете удалять свои сообщения
Вы не можете голосовать в опросах
Вы не можете прикреплять файлы к сообщениям
Вы можете скачивать файлы