Loading...
Error

Скачать Парадокс Кловерфилда / Частица Бога / The Cloverfield Paradox (Джулиус Она) [2018, ужасы, фантастика, триллер, детектив, WEBRip-AVC] [VO (BadBajo)] торрент без регистрации

Статистика раздачи
Размер:  1,46 GB   |    Скачан:  55 раз
Сидов:  1  [  8 KB/s  ]  
 
 
 
Автор Сообщение

МихаНЕзатор

[] 


Парадокс Кловерфилда / Частица Бога
The Cloverfield Paradox

«The Future Unleashed... Every Thing»



Страна: США
Жанр: ужасы, фантастика, триллер, детектив
Год выпуска: 2018
Режиссер: Джулиус Она / Julius Onah

В ролях: Гугу Эмбата-Ро, Дэвид Ойелоуо, Даниэль Брюль, Крис О’Дауд, Аксель Хенни, Чжан Цзыи, Элизабет Дебики, Роджер Дейвис, Джон Ортис, Jordan Rivera

Описание: В то время как земной мир пребывает на грани войны за ресурсы, в космосе группа учёных проводит испытания устройства, которое способно решить проблему энергетического кризиса. Несколько неудачных попыток вводят учёных в отчаяние. Топлива осталось на три запуска, и когда вдруг происходит удачный запуск устройства, радость длится недолго - команде предстоит иметь дело с очень странными явлениями.
События, о которых рассказывается в фильме, произошли до событий, описанных в фильме Мэтта Ривза «Монстро» (2008).

Релиз:

Автор рипа: stalkerok

Продолжительность: 01:42:26
Перевод: Любительский (одноголосый, закадровый) [А. Важенин - BadBajo]
Субтитры: нет
Оригинальная аудиодорожка: нет

Качество видео: WEBRip-AVC [The.Cloverfield.Paradox.2018.iNTERNAL.1080p.WEB.x264-STRiFE]
Формат видео: MKV
Видео кодек: AVC
Аудио кодек: AC3
Видео: 1588 Кбит/сек, 1020x424 (2.40:1), 23,976 кадр/сек, AVC
Аудио: русский, 448 Кбит/сек, 48 КГц, 5.1, AC3

АНОНСЫ ПОПУЛЯРНЫХ РАЗДАЧ


---[Information] [06.02.2018 17:13:01] x264 [info]: frame I:1209 Avg QP:14.76 size: 50234
---[Information] [06.02.2018 17:13:01] x264 [info]: frame P:32537 Avg QP:18.89 size: 17640
---[Information] [06.02.2018 17:13:01] x264 [info]: frame B:113623 Avg QP:20.50 size: 5154

General
Unique ID : 219448281935651809150544327042185841948 (0xA51833A56429FB319760132C36584D1C)
Complete name : M:$newThe Cloverfield ParadoxThe.Cloverfield.Paradox.2018.WEBRip-AVC.VO.RUS.stalkerok.new-team.mkv
Format : Matroska
Format version : Version 4 / Version 2
File size : 1.46 GiB
Duration : 1 h 42 min
Overall bit rate : 2 035 kb/s
Movie name : The Cloverfield Paradox (2018) (Rip by stalkerok)
Encoded date : UTC 2018-02-06 14:15:24
Writing application : mkvmerge v8.6.1 ('Flying') 64bit
Writing library : libebml v1.3.3 + libmatroska v1.4.4

Video
ID : 1
Format : AVC
Format/Info : Advanced Video Codec
Format profile : High@L4.1
Format settings, CABAC : Yes
Format settings, ReFrames : 12 frames
Codec ID : V_MPEG4/ISO/AVC
Duration : 1 h 42 min
Bit rate : 1 588 kb/s
Width : 1 020 pixels
Height : 424 pixels
Display aspect ratio : 2.40:1
Frame rate mode : Constant
Frame rate : 23.976 (24000/1001) FPS
Color space : YUV
Chroma subsampling : 4:2:0
Bit depth : 8 bits
Scan type : Progressive
Bits/(Pixel*Frame) : 0.153
Stream size : 1.14 GiB (78%)
Title : The Cloverfield Paradox (2018) (Rip by stalkerok)
Writing library : x264 core 152 r2851kMod ba24899
Encoding settings : cabac=1 / ref=12 / deblock=1:-2:-1 / analyse=0x3:0x133 / me=umh / subme=11 / psy=1 / fade_compensate=0.00 / psy_rd=1.00:0.00 / mixed_ref=1 / me_range=32 / chroma_me=1 / trellis=2 / 8x8dct=1 / cqm=0 / deadzone=21,11 / fast_pskip=0 / chroma_qp_offset=-2 / threads=12 / lookahead_threads=3 / sliced_threads=0 / nr=0 / decimate=0 / interlaced=0 / bluray_compat=0 / constrained_intra=0 / bframes=15 / b_pyramid=2 / b_adapt=2 / b_bias=0 / direct=3 / weightb=1 / open_gop=0 / weightp=2 / keyint=240 / keyint_min=23 / scenecut=40 / intra_refresh=0 / rc_lookahead=60 / rc=2pass / mbtree=0 / bitrate=1588 / ratetol=1.0 / qcomp=0.65 / qpmin=0 / qpmax=69 / qpstep=4 / cplxblur=20.0 / qblur=0.5 / vbv_maxrate=50000 / vbv_bufsize=62500 / nal_hrd=none / filler=0 / ip_ratio=1.40 / pb_ratio=1.30 / aq=3:0.80 / zones=138661,147368,q=34
Default : Yes
Forced : No

Audio
ID : 2
Format : AC-3
Format/Info : Audio Coding 3
Mode extension : CM (complete main)
Format settings, Endianness : Big
Codec ID : A_AC3
Duration : 1 h 41 min
Bit rate mode : Constant
Bit rate : 448 kb/s
Channel(s) : 6 channels
Channel positions : Front: L C R, Side: L R, LFE
Sampling rate : 48.0 kHz
Frame rate : 31.250 FPS (1536 spf)
Compression mode : Lossy
Stream size : 326 MiB (22%)
Language : Russian
Default : Yes
Forced : No



Скачать Парадокс.Кловерфилда.Частица.Бога.The.Cloverfield.Paradox.(Джулиус.Она).[2018.ужасы.фантастика.триллер.детектив.WEBRip-AVC].[VO.(BadBajo)].torrent без регистрации
Золото ЗОЛОТАЯ РАЗДАЧА! СКАЧАННОЕ НЕ ЗАСЧИТЫВАЕТСЯ! Золото
Дата: Зарегистрирован   [ Тип: внутренний ] Как тут cкачать?
MAGNET ссылка
MAGNET ссылка


Скачать .torrent

16 KB

Статус: проверено DHT
Скачан: торрент - 55 раз, раздача полностью - 76 раз
Размер: 1,46 GB
Оценка:  5 (Голосов: 1)
Поблагодарили: 7
Поделиться ссылкой на эту раздачу с друзьями:
В контактеFacebookОдноклассникиTwitterLivejournalМой МирLiveinternet
 

 
Показать сообщения:    


Вы не можете начинать темы
Вы не можете отвечать на сообщения
Вы не можете редактировать свои сообщения
Вы не можете удалять свои сообщения
Вы не можете голосовать в опросах
Вы не можете прикреплять файлы к сообщениям
Вы можете скачивать файлы