Loading...
Error

Скачать Коралловый риф / Faszination Korallenriff (Рене Шопфер) [2011, документальный, научно-познавательный, природа, океанография, видовой, релакс, BDRemux] [1080p] [VO]+[Sub Rus] торрент без регистрации

Статистика раздачи
Размер:  9,6 GB   |    Скачан:  23 раза

Полного источника не было: 26 минут

 
 
 
Автор Сообщение

Marsianka

[] 

Информация о фильме

Название: Коралловый риф
Оригинальное название: Faszination Korallenriff
Год выпуска: 2011
Жанр: документальный, научно-познавательный, природа, океанография, видовой, релакс
Выпущено: Германия, Limelight Pictures
Режиссер: Рене Шопфер

О фильме: Красивый и расслабляющий фильм, приглашает Вас отправится в коралловое путешествие. Яркие краски обитателей кораллового Мира, флора и фауна которую могут увидеть только профессиональные ныряльщики. От шаровых рыб, морских ежей, до гигантский акул. Вы будете удивлены многочисленности глубоководных жителей нашей планеты.



Файл

Качество: Blu-Ray Remux (1080p)
Видео: MPEG-4 AVC, 24233 Kбит/с, 1920x1080, 23.976 кадр/с
Аудио: Русский (АС3, 6 ch, 640 Кбит/с), (DTS-HD HR, 6 ch, 3840 Кбит/с), английский (DTS-HD HR, 6 ch, 2046 Кбит/с)
Размер: 9.60 ГБ
Продолжительность: 00:44:40
Перевод: Профессиональный одноголосый
Субтитры: Русские

За исходник, большое спасибо BLUEBIRD
Сохранены оригинальные чаптеры как на Blu-Ray

Общее
Уникальный идентификатор : 239538599279126163537159338687001769777 (0xB43574C43409D039BF8F1AEDC45BB731)
Полное имя : D:ЗагрузкиFaszination.Korallenriff.2011.BDRemux.(1080p).OlLanDGroup.mkv
Формат : Matroska
Версия формата : Version 4 / Version 2
Размер файла : 9,60 Гбайт
Продолжительность : 44 м.
Режим общего битрейта : Переменный
Общий поток : 30,8 Мбит/сек
Название фильма : Коралловый риф.2011.Сборка: ollan
Дата кодирования : UTC 2018-02-06 18:16:24
Программа кодирования : mkvmerge v6.5.0 ('Isn't she lovely') built on Oct 20 2013 12:50:05
Библиотека кодирования : libebml v1.3.0 + libmatroska v1.4.1
Attachements : Cover - Faszination.Korallenriff.png

Видео
Идентификатор : 1
Формат : AVC
Формат/Информация : Advanced Video Codec
Профиль формата : High@L4.1
Параметр CABAC формата : Да
Параметр ReFrames формата : 4 кадра
Параметр GOP формата : M=3, N=24
Идентификатор кодека : V_MPEG4/ISO/AVC
Продолжительность : 44 м.
Вид битрейта : Переменный
Максимальный битрейт : 30,0 Мбит/сек
Ширина : 1920 пикселей
Высота : 1080 пикселей
Соотношение сторон : 16:9
Режим частоты кадров : Постоянный
Частота кадров : 23,976 (24000/1001) кадра/сек
Стандарт вещания : NTSC
Цветовое пространство : YUV
Субдискретизация насыщенности : 4:2:0
Битовая глубина : 8 бит
Тип развёртки : Прогрессивная
Default : Да
Forced : Нет
Цветовой диапазон : Limited
Основные цвета : BT.709
Характеристики трансфера : BT.709
Коэффициенты матрицы : BT.709

Аудио #1
Идентификатор : 2
Формат : AC-3
Формат/Информация : Audio Coding 3
Расширение режима : CM (complete main)
Параметр Endianness формата : Big
Идентификатор кодека : A_AC3
Продолжительность : 44 м.
Вид битрейта : Постоянный
Битрейт : 640 Кбит/сек
Каналы : 6 каналов
Расположение каналов : Front: L C R, Side: L R, LFE
Частота : 48,0 КГц
Частота кадров : 31,250 кадров/сек (1536 spf)
Метод сжатия : С потерями
Размер потока : 205 Мбайт (2%)
Заголовок : Профессиональный одноголосый
Язык : Russian
Default : Да
Forced : Нет

Аудио #2
Идентификатор : 3
Формат : DTS
Формат/Информация : Digital Theater Systems
Идентификатор кодека : A_DTS
Продолжительность : 44 м.
Каналы : 6 каналов
Частота : 48,0 КГц
Метод сжатия : С потерями
Заголовок : Профессиональный одноголосый
Язык : Russian
Default : Нет
Forced : Нет

Аудио #3
Идентификатор : 4
Формат : DTS
Формат/Информация : Digital Theater Systems
Профиль формата : HRA / Core
Режим : 16
Параметр Endianness формата : Big
Идентификатор кодека : A_DTS
Продолжительность : 44 м.
Вид битрейта : Постоянный
Битрейт : 2046 Кбит/сек / 1509 Кбит/сек
Каналы : 6 каналов
Расположение каналов : Front: L C R, Side: L R, LFE
Частота : 48,0 КГц
Частота кадров : 93,750 кадра/сек (512 spf)
Битовая глубина : 24 бит
Метод сжатия : С потерями
Размер потока : 654 Мбайт (7%)
Язык : English
Default : Нет
Forced : Нет

Текст
Идентификатор : 5
Формат : UTF-8
Идентификатор кодека : S_TEXT/UTF8
Идентификатор кодека/Информация : UTF-8 Plain Text
Язык : Russian
Default : Нет
Forced : Нет

Меню
00:00:00.000 : :Chapter 01
00:09:36.325 : :Chapter 02
00:19:50.939 : :Chapter 03
00:27:55.340 : :Chapter 04
00:36:52.460 : :Chapter 05
00:44:30.125 : :Chapter 06

---------------------------------------------------------------------
BDinfo:

VIDEO:

Codec Bitrate Deion
----- ------- -----------
MPEG-4 AVC Video 24233 kbps 1080p / 23,976 fps / 16:9 / High Profile 4.1


AUDIO:

Codec Language Bitrate Deion
----- -------- ------- -----------
DTS-HD High-Res Audio Russian 3840 kbps 5.1 / 48 kHz / 3840 kbps / 16-bit (DTS Core: 5.1 / 48 kHz / 1509 kbps / 16-bit)
DTS-HD High-Res Audio English 2046 kbps 5.1 / 48 kHz / 2046 kbps / 24-bit (DTS Core: 5.1 / 48 kHz / 1509 kbps / 24-bit)
Dolby Digital Audio Russian 640 kbps 5.1 / 48 kHz / 640 kbps

SUBTITLES:

Codec Language Bitrate Deion
----- -------- ------- -----------
Presentation Graphics Russian 55,237 kbps
Релиз от: Rip by:



Скачать Коралловый.риф.Faszination.Korallenriff.(Рене.Шопфер).[2011.документальный.научно-познавательный.природа.океанография.видовой.релакс.BDRemux].[1080p].[VO]+[Sub.Rus].torrent без регистрации
Золото ЗОЛОТАЯ РАЗДАЧА! СКАЧАННОЕ НЕ ЗАСЧИТЫВАЕТСЯ! Золото
Дата: Зарегистрирован   [ Тип: внутренний ] Как тут cкачать?
MAGNET ссылка
MAGNET ссылка


Скачать .torrent

25 KB

Статус: проверено DHT
Скачан: торрент - 23 раз, раздача полностью - 4 раз
Размер: 9,6 GB
Оценка:  - (Голосов: 0)
Поблагодарили: 0
Поделиться ссылкой на эту раздачу с друзьями:
В контактеFacebookОдноклассникиTwitterLivejournalМой МирLiveinternet
 

 
Показать сообщения:    


Вы не можете начинать темы
Вы не можете отвечать на сообщения
Вы не можете редактировать свои сообщения
Вы не можете удалять свои сообщения
Вы не можете голосовать в опросах
Вы не можете прикреплять файлы к сообщениям
Вы можете скачивать файлы