Loading...
Error

Скачать National Geographic: Королевство обезьян: Брат против брата / Kingdom Of The Apes: Brother vs. Brother (Кэтрин Йеллос) [2014, документальный, HDTV] [1080i] [Dub] торрент без регистрации

Статистика раздачи
Размер:  1,56 GB   |    Скачан:  11 раз
Сидов:  1  [  0 KB/s  ]  
 
 
 
Автор Сообщение

Marsianka

[] 

Информация о фильме
Название: Королевство обезьян: Брат против брата
Оригинальное: Kingdom Of The Apes: Brother vs. Brother
Год выхода: 2014
Жанр: документальный
Режиссер: Кэтрин Йеллос

О фильме:
В исчезающих Африканских джунглях раскрываются секреты деградантов, находящихся на грани исчезновения. Наши ближайшие родственники в мире животных — шимпанзе и гориллы — живут в мире драмы и до боли нам знакомом. Молодые воины идут в бой, расширяя владения королевства, а матери заботятся о своём потомстве и готовят детей к будущим войнам. Короли поднимаются и падают в борьбе за власть и все применяемые методы вы уже однажды видели. Этим созданиям есть, что нам рассказать. Безусловно, мы знали, что они умны, но теперь мы узнаем, что у них есть и характер. Этот фильм покажет, что большинство человеческих повадок берут начало у этих недоразвитых, наших родственников.

Страна: США
Продолжительность: 00:43:40
Перевод: Дублированный

Файл
Кодек: MPEG-TS AVC
Качество: HDTV 1080i
Видео: 1920х1080, 4679 Кбит/с, 25 кадра/с
Звук: AC-3, 2 канала, 192 Кбит/с
Общее
Идентификатор : 1 (0x1)
Полное имя : D:КОРОЛЕВСТВО ОБЕЗЬЯН.ts
Формат : MPEG-TS
Размер файла : 1,56 Гбайт
Продолжительность : 43 м. 40 с.
Режим общего битрейта : Переменный
Общий поток : 5126 Кбит/сек
Максимальный общий битрейт : 35,5 Мбит/сек

Видео
Идентификатор : 4113 (0x1011)
Идентификатор меню : 1 (0x1)
Формат : AVC
Формат/Информация : Advanced Video Codec
Профиль формата : High@L4
Настройки формата : CABAC / 4 Ref Frames
Параметр CABAC формата : Да
Параметр RefFrames формата : 4 кадра
Идентификатор кодека : 27
Продолжительность : 43 м. 40 с.
Вид битрейта : Переменный
Битрейт : 4679 Кбит/сек
Максимальный битрейт : 5000 Кбит/сек
Ширина : 1920 пикселей
Высота : 1080 пикселей
Соотношение сторон : 16:9
Режим частоты кадров : Переменный
Цветовое пространство : YUV
Субдискретизация насыщенности : 4:2:0
Битовая глубина : 8 бит
Тип развёртки : MBAFF
Метод сохранения типа развёртки : Чередующиеся поля
Порядок развёртки : Верхнее поле первое
Размер потока : 1,43 Гбайт (91%)

Аудио
Идентификатор : 4352 (0x1100)
Идентификатор меню : 1 (0x1)
Формат : AC-3
Формат/Информация : Audio Coding 3
Идентификатор кодека : 129
Продолжительность : 43 м. 40 с.
Вид битрейта : Постоянный
Битрейт : 192 Кбит/сек
Каналы : 2 канала
Расположение каналов : Front: L R
Частота : 48,0 КГц
Частота кадров : 31,250 кадров/сек (1536 SPF)
Битовая глубина : 16 бит
Метод сжатия : С потерями
Размер потока : 60,0 Мбайт (4%)
Язык : Russian



Скачать National.Geographic.Королевство.обезьян.Брат.против.брата.Kingdom.Of.The.Apes.Brother.vs.Brother.(Кэтрин.Йеллос).[2014.документальный.HDTV].[1080i].[Dub].torrent без регистрации
Золото ЗОЛОТАЯ РАЗДАЧА! СКАЧАННОЕ НЕ ЗАСЧИТЫВАЕТСЯ! Золото
Дата: Зарегистрирован   [ Тип: внутренний ] Как тут cкачать?
MAGNET ссылка
MAGNET ссылка


Скачать .torrent

17 KB

Статус: проверено DHT
Скачан: торрент - 11 раз, раздача полностью - 0 раз
Размер: 1,56 GB
Оценка:  - (Голосов: 0)
Поблагодарили: 0
Поделиться ссылкой на эту раздачу с друзьями:
В контактеFacebookОдноклассникиTwitterLivejournalМой МирLiveinternet
 

 
Показать сообщения:    


Вы не можете начинать темы
Вы не можете отвечать на сообщения
Вы не можете редактировать свои сообщения
Вы не можете удалять свои сообщения
Вы не можете голосовать в опросах
Вы не можете прикреплять файлы к сообщениям
Вы можете скачивать файлы