Loading...
Error

Скачать Ритуал / The Ritual (Дэвид Брукнер) [2017, ужасы, WEB-DL] [1080p] [Sub Rus] (*Focs*) торрент без регистрации

Статистика раздачи
Размер:  3,3 GB   |    Скачан:  26 раз
Сидов:  1  [  0 KB/s  ]  
 
 
 
Автор Сообщение

leon030982

[] 

Ритуал / The Ritual




Год выхода : 2017
Жанр : ужасы
Страна : Великобритания
Продолжительность : 01:34:06
Перевод : Русские субтитры *Focs*

Режиссер : Дэвид Брукнер

В главных ролях: Рейф Сполл, Роб Джеймс-Колльер, Сэм Тротон, Аршер Али, Пол Рейд, Керри МакЛин, Мария Эрвольтер

Описание: Четверо бывших одноклассников отправляются в поход по горам и лесам, чтобы почтить память погибшего друга. Сначала они придерживаются общепринятого маршрута, но затем решают немного прогуляться в сторону от натоптанной тропы и находят в лесу странный дом.



Файл
Качество : WEB-DL 1080p
Формат видео : MKV
Видео : MPEG-4 AVC, ~ 4600 Кбит/с, 1920x958
Звук : 48 kHz, AC3 Dolby Digital, 6 ch, ~384 kbps
General
Unique ID : 253373174553694880335070492228540019093 (0xBE9DE5FD64F6891B7242FAF16169B195)
Complete name : E:\The Ritual 2017\The.Ritual.2017.mkv
Format : Matroska
Format version : Version 4 / Version 2
File size : 3.30 GiB
Duration : 1 h 34 min
Overall bit rate : 5 015 kb/s
Movie name : The.Ritual.2017.1080p.WEB-DL.DD5.1.H264-FGT
Encoded date : UTC 2018-02-07 18:10:36
Writing application : mkvmerge v20.0.0 ('I Am The Sun') 64-bit
Writing library : libebml v1.3.5 + libmatroska v1.4.8
Cover : Yes
Attachments : small_cover_land.jpg / cover.jpg / cover_land.jpg / small_cover.jpg

Video
ID : 1
Format : AVC
Format/Info : Advanced Video Codec
Format profile : High@L4
Format settings : CABAC / 4 Ref Frames
Format settings, CABAC : Yes
Format settings, RefFrames : 4 frames
Codec ID : V_MPEG4/ISO/AVC
Duration : 1 h 34 min
Bit rate : 4 532 kb/s
Width : 1 920 pixels
Height : 958 pixels
Display aspect ratio : 2.004
Frame rate mode : Constant
Frame rate : 23.976 (24000/1001) FPS
Color space : YUV
Chroma subsampling : 4:2:0
Bit depth : 8 bits
Scan type : Progressive
Bits/(Pixel*Frame) : 0.103
Stream size : 2.98 GiB (90%)
Title : The.Ritual.2017.1080p.WEB-DL.DD5.1.H264-FGT
Language : English
Default : Yes
Forced : No
Color range : Limited
Color primaries : BT.709
Transfer characteristics : BT.709
Matrix coefficients : BT.709

Audio
ID : 2
Format : AC-3
Format/Info : Audio Coding 3
Format settings, Endianness : Big
Codec ID : A_AC3
Duration : 1 h 34 min
Bit rate mode : Constant
Bit rate : 384 kb/s
Channel(s) : 6 channels
Channel positions : Front: L C R, Side: L R, LFE
Sampling rate : 48.0 kHz
Frame rate : 31.250 FPS (1536 SPF)
Bit depth : 16 bits
Compression mode : Lossy
Delay relative to video : -42 ms
Stream size : 258 MiB (8%)
Title : The.Ritual.2017.1080p.WEB-DL.DD5.1.H264-FGT
Language : English
Service kind : Complete Main
Default : Yes
Forced : No

Text
ID : 3
Format : UTF-8
Codec ID : S_TEXT/UTF8
Codec ID/Info : UTF-8 Plain Text
Title : FOCS Studio
Language : Russian
Default : Yes
Forced : No

Menu
00:00:00.000 : en:Chapter 1
00:10:06.731 : en:Chapter 2
00:17:04.815 : en:Chapter 3
00:26:09.734 : en:Chapter 4
00:36:45.411 : en:Chapter 5
00:44:52.189 : en:Chapter 6
00:55:33.079 : en:Chapter 7
01:03:48.491 : en:Chapter 8
01:12:47.363 : en:Chapter 9
01:19:14.875 : en:Chapter 10
01:30:11.656 : en:Chapter 11



Скачать Ритуал.The.Ritual.(Дэвид.Брукнер).[2017.ужасы.WEB-DL].[1080p].[Sub.Rus].(*Focs*).torrent без регистрации
Золото ЗОЛОТАЯ РАЗДАЧА! СКАЧАННОЕ НЕ ЗАСЧИТЫВАЕТСЯ! Золото
Дата: Зарегистрирован   [ Тип: внутренний ] Как тут cкачать?
MAGNET ссылка
MAGNET ссылка


Скачать .torrent

17 KB

Статус: проверено DHT
Скачан: торрент - 26 раз, раздача полностью - 20 раз
Размер: 3,3 GB
Оценка:  - (Голосов: 0)
Поблагодарили: 2
Поделиться ссылкой на эту раздачу с друзьями:
В контактеFacebookОдноклассникиTwitterLivejournalМой МирLiveinternet
 

 
Показать сообщения:    


Вы не можете начинать темы
Вы не можете отвечать на сообщения
Вы не можете редактировать свои сообщения
Вы не можете удалять свои сообщения
Вы не можете голосовать в опросах
Вы не можете прикреплять файлы к сообщениям
Вы можете скачивать файлы