Loading...
Error

Скачать Парадокс Кловерфилда / Частица Бога / The Cloverfield Paradox (Джулиус Она) [2018, ужасы, фантастика, триллер, детектив, WEBRip-AVC] [MVO (BaibaKo)]+[Eng] торрент без регистрации

Статистика раздачи
Размер:  2,49 GB   |    Скачан:  119 раз
Сидов:  4  [  3 KB/s  ]  
 
 
 
Автор Сообщение

МихаНЕзатор

[] 

Год выпуска: 2018
Страна: США
Жанр: ужасы, фантастика, триллер, детектив
Продолжительность: 01:42:26
Перевод: Любительский [многоголосый] [BaibaKo]
Режиссер: Джулиус Она

В ролях:


Гугу Эмбата-Ро (Hamilton), Дэвид Ойелоуо (Commander Kiel), Даниэль Брюль (Schmidt), Крис О’Дауд (Mundy), Аксель Хенни (Volkov), Чжан Цзыи (Tam), Элизабет Дебики (Jensen), Роджер Дейвис (Michael), Джон Ортис (Acosta), Jordan Rivera (Ayana Age 7)

Описание: В то время как земной мир пребывает на грани войны за ресурсы, в космосе группа учёных проводит испытания устройства, которое способно решить проблему энергетического кризиса. Несколько неудачных попыток вводят учёных в отчаяние. Топлива осталось на три запуска, и когда вдруг происходит удачный запуск устройства, радость длится недолго - команде предстоит иметь дело с очень странными явлениями.

Мировая премьера: 4 февраля 2018

Релиз от:

Качество: WEBRip-AVC
Формат: MKV
Видео кодек: AVC
Аудио кодек: AC3
Видео: AVC, 1024x424 (2.40:1), 2721 kbps, 23,976 fps, 0,261 bpp
Аудио №1: AC3 / 5.1 / 48 kHz / 384 kbps / Русский
Аудио №2: AC3 / 5.1 / 48 kHz / 384 kbps / Английский

АНОНСЫ ПОПУЛЯРНЫХ РАЗДАЧ


General
Unique ID : 309945602266207884519900006347950192901 (0xE92D5A05F7C6EBAC115867012466F905)
Complete name :
Format : Matroska
Format version : Version 4 / Version 2
File size : 2.49 GiB
Duration : 1 h 42 min
Overall bit rate : 3 483 kb/s
Movie name : Парадокс Кловерфилда / The Cloverfield Paradox (2018)
Encoded date : UTC 2018-02-07 11:38:16
Writing application : mkvmerge v20.0.0 ('I Am The Sun') 64-bit
Writing library : libebml v1.3.5 + libmatroska v1.4.8

Video
ID : 1
Format : AVC
Format/Info : Advanced Video Codec
Format profile : High@L4.1
Format settings, CABAC : Yes
Format settings, ReFrames : 10 frames
Codec ID : V_MPEG4/ISO/AVC
Duration : 1 h 42 min
Bit rate : 2 721 kb/s
Width : 1 024 pixels
Height : 424 pixels
Display aspect ratio : 2.40:1
Frame rate mode : Constant
Frame rate : 23.976 (24000/1001) FPS
Color space : YUV
Chroma subsampling : 4:2:0
Bit depth : 8 bits
Scan type : Progressive
Bits/(Pixel*Frame) : 0.261
Stream size : 1.94 GiB (78%)
Writing library : x264 core 152 r2851 ba24899
Encoding settings : cabac=1 / ref=10 / deblock=1:-3:-3 / analyse=0x3:0x133 / me=umh / subme=11 / psy=1 / psy_rd=1.00:0.00 / mixed_ref=1 / me_range=32 / chroma_me=1 / trellis=2 / 8x8dct=1 / cqm=0 / deadzone=21,11 / fast_pskip=0 / chroma_qp_offset=-2 / threads=6 / lookahead_threads=1 / sliced_threads=0 / nr=0 / decimate=0 / interlaced=0 / bluray_compat=0 / constrained_intra=0 / bframes=10 / b_pyramid=2 / b_adapt=2 / b_bias=0 / direct=3 / weightb=1 / open_gop=0 / weightp=2 / keyint=240 / keyint_min=23 / scenecut=40 / intra_refresh=0 / rc_lookahead=40 / rc=2pass / mbtree=0 / bitrate=2721 / ratetol=1.0 / qcomp=0.60 / qpmin=0 / qpmax=69 / qpstep=4 / cplxblur=20.0 / qblur=0.5 / vbv_maxrate=50000 / vbv_bufsize=62500 / nal_hrd=none / filler=0 / ip_ratio=1.40 / pb_ratio=1.30 / aq=1:1.00
Default : Yes
Forced : No

Audio #1
ID : 2
Format : AC-3
Format/Info : Audio Coding 3
Mode extension : CM (complete main)
Format settings, Endianness : Big
Codec ID : A_AC3
Duration : 1 h 41 min
Bit rate mode : Constant
Bit rate : 384 kb/s
Channel(s) : 6 channels
Channel positions : Front: L C R, Side: L R, LFE
Sampling rate : 48.0 kHz
Frame rate : 31.250 FPS (1536 spf)
Compression mode : Lossy
Stream size : 280 MiB (11%)
Language : Russian
Default : Yes
Forced : No

Audio #2
ID : 3
Format : AC-3
Format/Info : Audio Coding 3
Mode extension : CM (complete main)
Format settings, Endianness : Big
Codec ID : A_AC3
Duration : 1 h 41 min
Bit rate mode : Constant
Bit rate : 384 kb/s
Channel(s) : 6 channels
Channel positions : Front: L C R, Side: L R, LFE
Sampling rate : 48.0 kHz
Frame rate : 31.250 FPS (1536 spf)
Compression mode : Lossy
Stream size : 280 MiB (11%)
Language : English
Default : No
Forced : No



Скачать Парадокс.Кловерфилда.Частица.Бога.The.Cloverfield.Paradox.(Джулиус.Она).[2018.ужасы.фантастика.триллер.детектив.WEBRip-AVC].[MVO.(BaibaKo)]+[Eng].torrent без регистрации
Золото ЗОЛОТАЯ РАЗДАЧА! СКАЧАННОЕ НЕ ЗАСЧИТЫВАЕТСЯ! Золото
Дата: Зарегистрирован   [ Тип: внутренний ] Как тут cкачать?
MAGNET ссылка
MAGNET ссылка


Скачать .torrent

13 KB

Статус: проверено DHT
Скачан: торрент - 119 раз, раздача полностью - 156 раз
Размер: 2,49 GB
Оценка:  5 (Голосов: 1)
Поблагодарили: 5
Поделиться ссылкой на эту раздачу с друзьями:
В контактеFacebookОдноклассникиTwitterLivejournalМой МирLiveinternet
 

 
Показать сообщения:    


Вы не можете начинать темы
Вы не можете отвечать на сообщения
Вы не можете редактировать свои сообщения
Вы не можете удалять свои сообщения
Вы не можете голосовать в опросах
Вы не можете прикреплять файлы к сообщениям
Вы можете скачивать файлы