Loading...
Error

Скачать Несчастный случай / Accident Man (Джесси Джонсон) [2018, боевик, триллер, криминал, BDRip-AVC] [MVO (Лицензия)]+[Eng]+[Sub Rus, Eng] торрент без регистрации

Статистика раздачи
Размер:  2,12 GB   |    Скачан:  155 раз
Сидов:  88  [  4 KB/s  ]  
 
 
 
Автор Сообщение

МихаНЕзатор

[] 

Информация о фильме
Название: Несчастный случай
Оригинальное название: Accident Man
Год выпуска: 2018
Жанр: Боевик, триллер, криминал
Режиссер: Джесси Джонсон

В ролях: Скотт Эдкинс, Рэй Стивенсон, Эшли Грин, Дэвид Пэймер, Майкл Джей Уайт, Рэй Парк, Эми Джонстон, Перри Бенсон, Ник Моран, Росс О'Хеннесси

Описание: Главный герой является членом элитной команды убийц, работающих в небольшом пабе под названием «Оазис». У каждого из них собственные методы ведения дел. А вместе они являются одной из самых опасных команд во всем мире. Нет никого, кто бы пожелал перейти им дорогу. Все идет по расписанию до того момента, пока не погибает человек, который был близок Майку. Фэллон начинает собственное расследование и приходит к выводу, что за этими событиями стоит нечто более серьезного. Майк пытается найти заказчика и убийцу, чтобы поквитаться с ними.



Страна: Великобритания
Студия: Six Demon Films
Продолжительность: 01:45:29
Перевод: Профессиональный (многоголосый, закадровый) | Лицензия

Файл
Качество: BDRip-AVC
Видео: AVC, 1024x428 (2.40:1), 23.976 fps, 1983 Kbps, 0.189 bit/pixel
Аудио 1: AC-3, 48.0 KHz, 5.1 ch, 448 Kbps, CBR (Russian)
Аудио 2: AC-3, 48.0 KHz, 5.1 ch, 448 Kbps, CBR (Eng)
Субтитры: Русские, английские

АНОНСЫ ПОПУЛЯРНЫХ РАЗДАЧ
General
Unique ID : 210512758853688960634611575513615315171 (0x9E5F485828863C068DC5EBEB180630E3)
Complete name : D:Accident.Man.2018.BDRip.AVC.ExKinoRay.mkv
Format : Matroska
Format version : Version 2
File size : 2.12 GiB
Duration : 1 h 45 min
Overall bit rate : 2 882 kb/s
Movie name : Accident Man (2018) from ExKinoRay
Encoded date : UTC 2018-02-08 03:57:47
Writing application : mkvmerge v5.6.0 ('Kenya Kane') built on May 27 2012 16:44:04
Writing library : libebml v1.2.3 + libmatroska v1.3.0

Video
ID : 1
Format : AVC
Format/Info : Advanced Video Codec
Format profile : High@L4.1
Format settings, CABAC : Yes
Format settings, ReFrames : 13 frames
Codec ID : V_MPEG4/ISO/AVC
Duration : 1 h 45 min
Bit rate : 1 983 kb/s
Width : 1 024 pixels
Height : 428 pixels
Display aspect ratio : 2.40:1
Frame rate mode : Constant
Frame rate : 23.976 (23976/1000) FPS
Color space : YUV
Chroma subsampling : 4:2:0
Bit depth : 8 bits
Scan type : Progressive
Bits/(Pixel*Frame) : 0.189
Stream size : 1.42 GiB (67%)
Title : Enigma
Writing library : x264 core 152 r2851 ba24899
Encoding settings : cabac=1 / ref=13 / deblock=1:-2:-2 / analyse=0x3:0x113 / me=umh / subme=11 / psy=1 / psy_rd=1.00:0.05 / mixed_ref=1 / me_range=32 / chroma_me=1 / trellis=2 / 8x8dct=1 / cqm=0 / deadzone=21,11 / fast_pskip=0 / chroma_qp_offset=-3 / threads=12 / lookahead_threads=3 / sliced_threads=0 / nr=0 / decimate=0 / interlaced=0 / bluray_compat=0 / constrained_intra=0 / bframes=11 / b_pyramid=2 / b_adapt=2 / b_bias=0 / direct=3 / weightb=1 / open_gop=0 / weightp=2 / keyint=240 / keyint_min=23 / scenecut=40 / intra_refresh=0 / rc_lookahead=40 / rc=2pass / mbtree=0 / bitrate=1983 / ratetol=1.0 / qcomp=0.60 / qpmin=0 / qpmax=51 / qpstep=4 / cplxblur=20.0 / qblur=0.5 / vbv_maxrate=50000 / vbv_bufsize=62500 / nal_hrd=none / filler=0 / ip_ratio=1.40 / pb_ratio=1.30 / aq=3:0.90
Language : English
Default : Yes
Forced : No
Color range : Limited
Color primaries : BT.709
Transfer characteristics : BT.709
Matrix coefficients : BT.709

Audio #1
ID : 2
Format : AC-3
Format/Info : Audio Coding 3
Mode extension : CM (complete main)
Format settings, Endianness : Big
Codec ID : A_AC3
Duration : 1 h 45 min
Bit rate mode : Constant
Bit rate : 448 kb/s
Channel(s) : 6 channels
Channel positions : Front: L C R, Side: L R, LFE
Sampling rate : 48.0 kHz
Frame rate : 31.250 FPS (1536 spf)
Compression mode : Lossy
Stream size : 338 MiB (16%)
Title : MVO (Blu-ray EUR)
Language : Russian
Default : Yes
Forced : No

Audio #2
ID : 3
Format : AC-3
Format/Info : Audio Coding 3
Mode extension : CM (complete main)
Format settings, Endianness : Big
Codec ID : A_AC3
Duration : 1 h 45 min
Bit rate mode : Constant
Bit rate : 448 kb/s
Channel(s) : 6 channels
Channel positions : Front: L C R, Side: L R, LFE
Sampling rate : 48.0 kHz
Frame rate : 31.250 FPS (1536 spf)
Compression mode : Lossy
Stream size : 338 MiB (16%)
Language : English
Default : No
Forced : No

Text #1
ID : 4
Format : UTF-8
Codec ID : S_TEXT/UTF8
Codec ID/Info : UTF-8 Plain Text
Title : Full
Language : Russian
Default : No
Forced : No

Text #2
ID : 5
Format : UTF-8
Codec ID : S_TEXT/UTF8
Codec ID/Info : UTF-8 Plain Text
Language : English
Default : No
Forced : No

Menu
00:00:00.000 : en:00:00:00.000
00:06:02.153 : en:00:06:02.153
00:15:28.845 : en:00:15:28.845
00:17:56.367 : en:00:17:56.367
00:21:30.456 : en:00:21:30.456
00:28:05.559 : en:00:28:05.559
00:33:13.158 : en:00:33:13.158
00:42:36.554 : en:00:42:36.554
00:46:16.273 : en:00:46:16.273
00:53:10.729 : en:00:53:10.729
00:58:43.145 : en:00:58:43.145
01:05:58.872 : en:01:05:58.872
01:11:50.306 : en:01:11:50.306
01:15:08.379 : en:01:15:08.379
01:26:46.201 : en:01:26:46.201
01:33:46.204 : en:01:33:46.204



Скачать Несчастный.случай.Accident.Man.(Джесси.Джонсон).[2018.боевик.триллер.криминал.BDRip-AVC].[MVO.(Лицензия)]+[Eng]+[Sub.Rus.Eng].torrent без регистрации
Золото ЗОЛОТАЯ РАЗДАЧА! СКАЧАННОЕ НЕ ЗАСЧИТЫВАЕТСЯ! Золото
Дата: Зарегистрирован   [ Тип: внешний ] Как тут cкачать?
MAGNET ссылка
MAGNET ссылка


Скачать .torrent

12 KB

Статус: проверено DHT
Скачан: торрент - 155 раз, раздача полностью - 216 раз
Размер: 2,12 GB
Оценка:  - (Голосов: 0)
Поблагодарили: 4
Поделиться ссылкой на эту раздачу с друзьями:
В контактеFacebookОдноклассникиTwitterLivejournalМой МирLiveinternet
 

 
Показать сообщения:    


Вы не можете начинать темы
Вы не можете отвечать на сообщения
Вы не можете редактировать свои сообщения
Вы не можете удалять свои сообщения
Вы не можете голосовать в опросах
Вы не можете прикреплять файлы к сообщениям
Вы можете скачивать файлы