Loading...
Error

Скачать Яркость / Bright (Дэвид Эйр) [2017, фантастика, фэнтези, боевик, триллер, криминал, WEBRip] [720p] [MVO (HDrezka Studio)]+[Eng] торрент без регистрации

Статистика раздачи
Размер:  3,52 GB   |    Скачан:  53 раза
Сидов:  5  [  86 KB/s  ]   Личеров:  1  [  0 KB/s  ]  
 
 
 
Автор Сообщение

МихаНЕзатор

[] 

Год выпуска: 2017
Страна: США
Жанр: фантастика, фэнтези, боевик, триллер, криминал
Режиссер: Дэвид Эйр

В ролях:


Уилл Смит (Daryl Ward), Нуми Рапас (Leilah), Джоэл Эдгертон (Nick Jakoby), Люси Фрай (Tikka), Джей Эрнандес (Rodriguez), Эдгар Рамирес (Kandomere), Айк Баринхолц (Pollard), Вероника Нго (Tien), Хэппи Андерсон (Montehugh), Брэд Уильям Хенке (Dorghu), Андреа Наведо (Captain Perez), Доун Оливери (Sherri)

Описание: В альтернативном Лос-Анджелесе кого только не встретишь - бок о бок с людьми живут эльфы, орки и даже кентавры. Эльфы, правда, немного брезгуют всеми остальными, поэтому устроили себе отдельный район, куда въезд только по пропускам. А вот людям приходится терпеть грубых и склонных к преступлениям орков, те предпочитают селиться в криминальных гетто.

Мировая премьера: 22 декабря 2017

Релиз от:

Продолжительность: 01:57:46
Перевод: Любительский [многоголосый] [HDrezka Studio]

Качество: WEBRip 720p
Формат: MKV
Видео кодек: AVC
Аудио кодек: AC3
Видео: AVC, 1280x536 (2.40:1), 3510 kbps, 24 fps, 0,213 bpp
Аудио №1: AC3 / 2.0 / 48 kHz / 384 kbps / RUS [HDrezka Studio]
Аудио №2: AC3 / 5.1 / 48 kHz / 384 kbps / ENG

АНОНСЫ ПОПУЛЯРНЫХ РАЗДАЧ

General
Unique ID : 59950131013251789261028008423533462924 (0x2D19F9A9E85FE0704C3708437682458C)
Format : Matroska
Format version : Version 4 / Version 2
File size : 3.52 GiB
Duration : 1 h 57 min
Overall bit rate : 4 279 kb/s
Movie name : Bright.2017.720p.Kinozal-Reliz.by WSM.&.[hdrezka studio]
Encoded date : UTC 2018-02-07 14:55:56
Writing application : mkvmerge v20.0.0 ('I Am The Sun') 64-bit
Writing library : libebml v1.3.5 + libmatroska v1.4.8

Video
ID : 1
Format : AVC
Format/Info : Advanced Video Codec
Format profile : High@L4.1
Format settings, CABAC : Yes
Format settings, ReFrames : 12 frames
Codec ID : V_MPEG4/ISO/AVC
Duration : 1 h 57 min
Bit rate : 3 511 kb/s
Width : 1 280 pixels
Height : 536 pixels
Display aspect ratio : 2.40:1
Frame rate mode : Constant
Frame rate : 24.000 FPS
Color space : YUV
Chroma subsampling : 4:2:0
Bit depth : 8 bits
Scan type : Progressive
Bits/(Pixel*Frame) : 0.213
Stream size : 2.89 GiB (82%)
Writing library : x264 core 152 r2851kMod ba24899
Encoding settings : cabac=1 / ref=12 / deblock=1:-3:-3 / analyse=0x3:0x133 / me=umh / subme=10 / psy=1 / fade_compensate=0.00 / psy_rd=1.00:0.00 / mixed_ref=1 / me_range=48 / chroma_me=1 / trellis=2 / 8x8dct=1 / cqm=0 / deadzone=21,11 / fast_pskip=0 / chroma_qp_offset=-2 / threads=12 / lookahead_threads=2 / sliced_threads=0 / nr=0 / decimate=0 / interlaced=0 / bluray_compat=0 / constrained_intra=0 / bframes=8 / b_pyramid=2 / b_adapt=2 / b_bias=0 / direct=3 / weightb=1 / open_gop=0 / weightp=2 / keyint=250 / keyint_min=24 / scenecut=40 / intra_refresh=0 / rc=crf / mbtree=0 / crf=16.0000 / qcomp=0.60 / qpmin=0 / qpmax=69 / qpstep=4 / ip_ratio=1.30 / pb_ratio=1.20 / aq=3:0.80
Language : English
Default : Yes
Forced : No

Audio #1
ID : 2
Format : AC-3
Format/Info : Audio Coding 3
Mode extension : CM (complete main)
Format settings, Endianness : Big
Codec ID : A_AC3
Duration : 1 h 57 min
Bit rate mode : Constant
Bit rate : 384 kb/s
Channel(s) : 2 channels
Channel positions : Front: L R
Sampling rate : 48.0 kHz
Frame rate : 31.250 FPS (1536 spf)
Compression mode : Lossy
Stream size : 323 MiB (9%)
Default : Yes
Forced : No

Audio #2
ID : 3
Format : AC-3
Format/Info : Audio Coding 3
Mode extension : CM (complete main)
Format settings, Endianness : Big
Codec ID : A_AC3
Duration : 1 h 57 min
Bit rate mode : Constant
Bit rate : 384 kb/s
Channel(s) : 6 channels
Channel positions : Front: L C R, Side: L R, LFE
Sampling rate : 48.0 kHz
Frame rate : 31.250 FPS (1536 spf)
Compression mode : Lossy
Stream size : 322 MiB (9%)
Language : English
Default : No
Forced : No



Скачать Яркость.Bright.(Дэвид.Эйр).[2017.фантастика.фэнтези.боевик.триллер.криминал.WEBRip].[720p].[MVO.(HDrezka.Studio)]+[Eng].torrent без регистрации
Золото ЗОЛОТАЯ РАЗДАЧА! СКАЧАННОЕ НЕ ЗАСЧИТЫВАЕТСЯ! Золото
Дата: Зарегистрирован   [ Тип: внешний ] Как тут cкачать?
MAGNET ссылка
MAGNET ссылка


Скачать .torrent

19 KB

Статус: проверено DHT
Скачан: торрент - 53 раз, раздача полностью - 31 раз
Размер: 3,52 GB
Оценка:  4,5 (Голосов: 2)
Поблагодарили: 3
Поделиться ссылкой на эту раздачу с друзьями:
В контактеFacebookОдноклассникиTwitterLivejournalМой МирLiveinternet
 

 
Показать сообщения:    


Вы не можете начинать темы
Вы не можете отвечать на сообщения
Вы не можете редактировать свои сообщения
Вы не можете удалять свои сообщения
Вы не можете голосовать в опросах
Вы не можете прикреплять файлы к сообщениям
Вы можете скачивать файлы