Loading...
Error

Скачать Плачущий убийца / Crying Freeman (Кристоф Ганс) [1995, боевик, триллер, криминал, BDRip-AVC] [MVO (R5)]+[Sub Rus, Eng]x2 торрент без регистрации

Статистика раздачи
Размер:  746 MB   |    Скачан:  16 раз
Сидов:  1  [  0 KB/s  ]  
 
 
 
Автор Сообщение

Marsianka

[] 

Информация о фильме
Название: Плачущий убийца
Оригинальное название: Crying Freeman
Год выпуска: 1995
Жанр: боевик, триллер, криминал
Режиссер: Кристоф Ганс
В ролях: Марк Дакаскос, Джули Кондра, Рей Дон Чонг, Байрон Манн, Масая Като, Чеки Карио, Мако, Кеван Охтци, Дэбби Подовски, Мюррэй Лоури

О фильме :
Молодого художника Йо похищают и «перепрограммируют» в «Освободителя» — изощренного элитного убийцу, обладающего безграничными, почти фантастическими возможностями, способного ликвидировать даже главарей японской якудзы, главных противников его повелителей, Сынов Дракона. Красавица Эму оказывается случайной свидетельницей одного из убийств, совершенных Йо. Традиция «убийц — освободителей» требует, чтобы она погибла от его руки. Вместо этого, они влюбляются друг в друга и начинают одиссею страсти и насилия.



Выпущено: Канада, Франция, Япония, США
Продолжительность: 01:41:57
Перевод: Профессиональный (многоголосый, закадровый) - R5

Файл
Формат: MKV
Качество: BDRip-AVC (BDRemux 1080p)
Видео: MPEG-4 AVC, 768x320, ~ 945 Кбит/с
Аудио: AAC-LC, 2 ch, ~ 76 Кбит/с
Субтитры: Русские, английские
Общее
Уникальный идентификатор : 249296817154739519891661570474087508104 (0xBB8CD20D972992EBAADA8796D04B6888)
Полное имя : D:MOVIESPlachuwij.ubijca.1995.ExKinoRay.mkv
Формат : Matroska
Версия формата : Version 4 / Version 2
Размер файла : 746 Мбайт
Продолжительность : 1 ч. 41 м.
Общий поток : 1023 Кбит/сек
Дата кодирования : UTC 2018-02-07 15:06:09
Программа кодирования : mkvmerge v15.0.0 ('Duel with the Devil') 64-bit
Библиотека кодирования : libebml v1.3.5 + libmatroska v1.4.5

Видео
Идентификатор : 1
Формат : AVC
Формат/Информация : Advanced Video Codec
Профиль формата : High@L4.1
Параметр CABAC формата : Да
Параметр RefFrames формата : 10 кадров
Идентификатор кодека : V_MPEG4/ISO/AVC
Продолжительность : 1 ч. 41 м.
Битрейт : 945 Кбит/сек
Ширина : 768 пикселей
Высота : 320 пикселей
Соотношение сторон : 2,40:1
Режим частоты кадров : Постоянный
Частота кадров : 23,976 (24000/1001) кадра/сек
Цветовое пространство : YUV
Субдискретизация насыщенности : 4:2:0
Битовая глубина : 8 бит
Тип развёртки : Прогрессивная
Бит/(Пиксели*Кадры) : 0.160
Размер потока : 689 Мбайт (92%)
Библиотека кодирования : x264 core 152 r2851kMod ba24899
Настройки программы : cabac=1 / ref=10 / deblock=1:-3:-3 / analyse=0x3:0x133 / me=umh / subme=11 / psy=1 / fade_compensate=0.00 / psy_rd=1.00:0.07 / mixed_ref=1 / me_range=32 / chroma_me=1 / trellis=2 / 8x8dct=1 / cqm=0 / deadzone=21,11 / fast_pskip=0 / chroma_qp_offset=-3 / threads=6 / lookahead_threads=1 / sliced_threads=0 / nr=0 / decimate=0 / interlaced=0 / bluray_compat=0 / constrained_intra=0 / bframes=10 / b_pyramid=2 / b_adapt=2 / b_bias=0 / direct=3 / weightb=1 / open_gop=0 / weightp=2 / keyint=240 / keyint_min=23 / scenecut=40 / intra_refresh=0 / rc_lookahead=40 / rc=2pass / mbtree=1 / bitrate=945 / ratetol=1.0 / qcomp=0.60 / qpmin=0 / qpmax=69 / qpstep=4 / cplxblur=20.0 / qblur=0.5 / vbv_maxrate=50000 / vbv_bufsize=62500 / nal_hrd=none / filler=0 / ip_ratio=1.40 / aq=3:1.00
Default : Да
Forced : Нет

Аудио
Идентификатор : 2
Формат : AAC
Формат/Информация : Advanced Audio Codec
Профиль формата : LC
Идентификатор кодека : A_AAC
Продолжительность : 1 ч. 41 м.
Битрейт : 76,0 Кбит/сек
Каналы : 2 канала
Расположение каналов : Front: L R
Частота : 48,0 КГц
Частота кадров : 46,875 кадров/сек (1024 SPF)
Метод сжатия : С потерями
Задержка видео : 9 мс.
Размер потока : 55,4 Мбайт (7%)
Язык : Russian
Default : Да
Forced : Нет

Текст #1
Идентификатор : 3
Формат : UTF-8
Идентификатор кодека : S_TEXT/UTF8
Идентификатор кодека/Информация : UTF-8 Plain Text
Продолжительность : 1 ч. 36 м.
Битрейт : 43 бит/сек
ElementCount : 681
Размер потока : 30,7 Кбайт (0%)
Язык : Russian
Default : Нет
Forced : Нет

Текст #2
Идентификатор : 4
Формат : UTF-8
Идентификатор кодека : S_TEXT/UTF8
Идентификатор кодека/Информация : UTF-8 Plain Text
Продолжительность : 1 ч. 33 м.
Битрейт : 28 бит/сек
ElementCount : 587
Размер потока : 19,8 Кбайт (0%)
Язык : English
Default : Нет
Forced : Нет

Меню
00:00:00.000 : :Chapter 01
00:03:34.964 : :Chapter 02
00:10:11.235 : :Chapter 03
00:11:53.087 : :Chapter 04
00:15:56.413 : :Chapter 05
00:20:16.089 : :Chapter 06
00:22:51.244 : :Chapter 07
00:26:30.714 : :Chapter 08
00:30:58.022 : :Chapter 09
00:33:44.397 : :Chapter 10
00:40:29.593 : :Chapter 11
00:45:50.581 : :Chapter 12
00:48:46.965 : :Chapter 13
00:50:47.294 : :Chapter 14
00:53:30.290 : :Chapter 15
00:59:04.415 : :Chapter 16
01:01:08.373 : :Chapter 17
01:06:21.143 : :Chapter 18
01:07:48.064 : :Chapter 19
01:11:23.153 : :Chapter 20
01:14:47.649 : :Chapter 21
01:20:24.945 : :Chapter 22
01:25:44.597 : :Chapter 23
01:35:17.002 : :Chapter 24
Релиз от:



Скачать Плачущий.убийца.Crying.Freeman.(Кристоф.Ганс).[1995.боевик.триллер.криминал.BDRip-AVC].[MVO.(R5)]+[Sub.Rus.Eng]x2.torrent без регистрации
Золото ЗОЛОТАЯ РАЗДАЧА! СКАЧАННОЕ НЕ ЗАСЧИТЫВАЕТСЯ! Золото
Дата: Зарегистрирован   [ Тип: внутренний ] Как тут cкачать?
MAGNET ссылка
MAGNET ссылка


Скачать .torrent

16 KB

Статус: проверено DHT
Скачан: торрент - 16 раз, раздача полностью - 3 раз
Размер: 746 MB
Оценка:  - (Голосов: 0)
Поблагодарили: 0
Поделиться ссылкой на эту раздачу с друзьями:
В контактеFacebookОдноклассникиTwitterLivejournalМой МирLiveinternet
 

 
Показать сообщения:    


Вы не можете начинать темы
Вы не можете отвечать на сообщения
Вы не можете редактировать свои сообщения
Вы не можете удалять свои сообщения
Вы не можете голосовать в опросах
Вы не можете прикреплять файлы к сообщениям
Вы можете скачивать файлы