Loading...
Error

Скачать Полицейский-психопат 2 / Psycho Cop Returns (Адам Рифкин) [1993, ужасы, триллер, драма, BDRip-AVC] [AVO (Андрей Гаврилов)]+[Eng]+[Sub Eng] торрент без регистрации

Статистика раздачи
Размер:  2,18 GB   |    Скачан:  12 раз
Сидов:  1  [  0 KB/s  ]  
 
 
 
Автор Сообщение

Marsianka

[] 

Информация о фильме
Название: Полицейский-психопат 2
Оригинальное название: Psycho Cop Returns
Год выхода: 1993
Жанр: ужасы, триллер, драма
Режиссер: Адам Рифкин
В ролях: Роберт Р. Шафер, Барбара Нивен, Род Свейцер, Майлз Дагал, Ник Валлелонга, Дэйв Бин, Джон Пэкстон, Джули Стрэйн, Мелани Гуд, Морин Флаэрти

Описание:
Полицейский-маньяк Джо Викерс снова в деле. На этот раз он решает нагрянуть на офисную вечеринку, на которой по слухам курят травку и вообще ведут себя неподобающе законопослушным гражданам.



Страна: США
Продолжительность: 01:25:13
Перевод: Авторский (одноголосый закадровый) Андрей Гаврилов
Субтитры: Английские

Файл
Качество: BDRip-AVC
Видео: 1038х560 pixels, (1.85:1), ~3244 Kb/s, 23.976 FPS
Аудио: #1: 48 kHz, AC3 Dolby Digital, 2/0 (L,R) ch, ~224.00 kbps avg - Гаврилов
Аудио: #2: 48 kHz, AC3 Dolby Digital, 2/0 (L,R) ch, ~192.00 kbps avg - английский
General
Unique ID : 101565230617617938336625163578125108577 (0x4C68C07C3952BA40D425F41F6328C561)
Complete name : F:FILMSPsycho.Cop.Returns.1993.BDRIP-AVC.[-=DoMiNo=-].mkv
Format : Matroska
Format version : Version 4 / Version 2
File size : 2.18 GiB
Duration : 1 h 25 min
Overall bit rate : 3 664 kb/s
Movie name : Psycho Cop Returns
Deion : Полицейский-маньяк Джо Викерс снова в деле. На этот раз он решает нагрянуть на офисную вечеринку, на которой по слухам курят травку и вообще ведут себя неподобающе законопослушным гражданам.
Writing application : XviD4PSP 7.0.442 DAILY
Writing library : Lavf57.71.100
ErrorDetectionType : Per level 1
Attachments : poster.jpg
ACTORS : Robert R. Shafer, Barbara Niven, Miles Dougal, Rod Sweitzer, Julie Strain, Melanie Good, Nick Vallelonga, Maureen Flaherty, Dave Bean, Justin Carroll, Carol Cummings, John Paxton, Adam Rifkin, Al Schuermann, Alisa Wilson, Michael Karp, Brittany Ashland, Sara Lee Froton
COUNTRY : United States
DATE : 1993-11-08
DIRECTOR : Adam Rifkin
GENRE : ужасы
HD_VIDEO : 1
ITUNEXTC : mpaa|R|400|
Language : und
MEDIA_TYPE : 9
PRODUCER : David Andriole, Robert R. Shafer
PUBLISHER : Film Nouveau, Penn-Eden West Pictures Inc.
RATING : 6.00
WRITER : Dan Povenmire

Video
ID : 1
Format : AVC
Format/Info : Advanced Video Codec
Format profile : High@L4.1
Format settings : CABAC / 11 Ref Frames
Format settings, CABAC : Yes
Format settings, ReFrames : 11 frames
Codec ID : V_MPEG4/ISO/AVC
Duration : 1 h 25 min
Bit rate : 3 244 kb/s
Width : 1 038 pixels
Height : 560 pixels
Display aspect ratio : 1.85:1
Frame rate mode : Constant
Frame rate : 23.976 (24000/1001) FPS
Color space : YUV
Chroma subsampling : 4:2:0
Bit depth : 8 bits
Scan type : Progressive
Bits/(Pixel*Frame) : 0.233
Stream size : 1.89 GiB (87%)
Title : RIP_BY_-=DoMiNo=-
Writing library : x264 core 155 r2901M 7d0ff22
Encoding settings : cabac=1 / ref=11 / deblock=1:-3:-3 / analyse=0x3:0x133 / me=umh / subme=11 / psy=1 / psy_rd=1.00:0.03 / mixed_ref=1 / me_range=32 / chroma_me=1 / trellis=2 / 8x8dct=1 / cqm=0 / deadzone=21,11 / fast_pskip=1 / chroma_qp_offset=-3 / threads=5 / lookahead_threads=1 / sliced_threads=0 / nr=0 / decimate=1 / interlaced=0 / bluray_compat=0 / constrained_intra=0 / bframes=12 / b_pyramid=2 / b_adapt=2 / b_bias=0 / direct=3 / weightb=1 / open_gop=0 / weightp=2 / keyint=240 / keyint_min=24 / scenecut=40 / intra_refresh=0 / rc_lookahead=60 / rc=2pass / mbtree=1 / bitrate=3244 / ratetol=1.0 / qcomp=0.70 / qpmin=0 / qpmax=69 / qpstep=4 / cplxblur=20.0 / qblur=0.5 / ip_ratio=1.40 / aq=1:1.00
Language : English
Default : Yes
Forced : No
Color range : Limited
Color primaries : BT.709
Transfer characteristics : BT.709
Matrix coefficients : BT.709

Audio #1
ID : 2
Format : AC-3
Format/Info : Audio Coding 3
Codec ID : A_AC3
Duration : 1 h 25 min
Bit rate mode : Constant
Bit rate : 224 kb/s
Channel(s) : 2 channels
Channel positions : Front: L R
Sampling rate : 48.0 kHz
Frame rate : 31.250 FPS (1536 SPF)
Bit depth : 16 bits
Compression mode : Lossy
Stream size : 137 MiB (6%)
Title : Андрей Гаврилов
Language : Russian
Service kind : Complete Main
Default : Yes
Forced : No

Audio #2
ID : 3
Format : AC-3
Format/Info : Audio Coding 3
Codec ID : A_AC3
Duration : 1 h 25 min
Bit rate mode : Constant
Bit rate : 192 kb/s
Channel(s) : 2 channels
Channel positions : Front: L R
Sampling rate : 48.0 kHz
Frame rate : 31.250 FPS (1536 SPF)
Bit depth : 16 bits
Compression mode : Lossy
Stream size : 117 MiB (5%)
Title : ENG
Language : English
Service kind : Complete Main
Default : No
Forced : No

Text
ID : 4
Format : UTF-8
Codec ID : S_TEXT/UTF8
Codec ID/Info : UTF-8 Plain Text
Title : ENG_SDH
Language : English
Default : Yes
Forced : No

Menu
00:00:00.000 : :Chapter 01
00:21:47.806 : :Chapter 02
00:42:45.062 : :Chapter 03
01:02:44.761 : :Chapter 04
01:13:08.384 : :Chapter 05
01:25:13.316 : :Chapter 06



Скачать Полицейский-психопат.2.Psycho.Cop.Returns.(Адам.Рифкин).[1993.ужасы.триллер.драма.BDRip-AVC].[AVO.(Андрей.Гаврилов)]+[Eng]+[Sub.Eng].torrent без регистрации
Золото ЗОЛОТАЯ РАЗДАЧА! СКАЧАННОЕ НЕ ЗАСЧИТЫВАЕТСЯ! Золото
Дата: Зарегистрирован   [ Тип: внутренний ] Как тут cкачать?
MAGNET ссылка
MAGNET ссылка


Скачать .torrent

12 KB

Статус: проверено DHT
Скачан: торрент - 12 раз, раздача полностью - 0 раз
Размер: 2,18 GB
Оценка:  - (Голосов: 0)
Поблагодарили: 0
Поделиться ссылкой на эту раздачу с друзьями:
В контактеFacebookОдноклассникиTwitterLivejournalМой МирLiveinternet
 

 
Показать сообщения:    


Вы не можете начинать темы
Вы не можете отвечать на сообщения
Вы не можете редактировать свои сообщения
Вы не можете удалять свои сообщения
Вы не можете голосовать в опросах
Вы не можете прикреплять файлы к сообщениям
Вы можете скачивать файлы