Loading...
Error

Скачать О мышах и людях / Of Mice and Men (Гэри Синиз) [1992, драма, BDRip-AVC] [DVO]+[AVO]x2+[Оригинал Eng]+[Sub Rus, Eng]x2 торрент без регистрации

Статистика раздачи
Размер:  2,74 GB   |    Скачан:  12 раз
Сидов:  18  [  0 KB/s  ]  
 
 
 
Автор Сообщение

Marsianka

[] 

Информация о фильме
Название: О мышах и людях
Оригинальное название: Of Mice and Men
Год выпуска: 1992
Страна: США
Жанр: драма
Перевод: Профессиональный (двухголосый, закадровый), Авторский (одноголосый, закадровый)
Субтитры: русские (full), английские (full)
Продолжительность: 01:50:46
Режиссер: Гэри Синиз
В ролях:

Джон Малкович (Lennie Small), Гэри Синиз (George Milton), Рей Уолстон (Candy), Кейси Семашко (Curley), Шерилин Фенн (Curley's Wife), Джон Терри (Slim), Ричард Рили (Carlson), Алексис Аркетт (Whitt), Джо Мортон (Crooks), Ноубл Уиллингэм (The Boss), Джо Д’Анджерио (Jack), Так Миллиган (Mike)
Описание:
Экранизация одноимённой повести Джона Стейнбека о двух приятелях, которые в годы Великой депрессии бродили по Америке в поисках работы. Неглупый крепкий парень Джордж и слабоумный Ленни - удача редко улыбалась им, но Джордж не мог бросить Ленни, который наверняка бы моментально попал в какую-нибудь передрягу. И всё-таки трагический день в жизни обоих наступил. Через некоторое время после начала работы на ранчо Тайлера...
Рейтинг:

MPAA: PG-13 - Детям до 13 лет просмотр не желателен
Качество: BDRip-AVC
Формат: MKV
Видео: AVC, 1024x556 (1.85:1), 2576 kbps, 23,976 fps, 0,189 bpp
Аудио №1: русский / AC3 / 2.0 / 48 kHz / 192 kbps / DVO НТВ+
Аудио №2: русский / AC3 / 2.0 / 48 kHz / 384 kbps / AVO Чадов Михаил
Аудио №3: русский / AC3 / 2.0 / 48 kHz / 192 kbps / AVO Гаврилов Андрей Юрьевич
Аудио №4: английский / AC3 / 2.0 / 48 kHz / 192 kbps / Оригинал
Навигация по главам: есть

Релиз от:

General
Unique ID : 176853752562112761229305584694018965661 (0x850CCB3567F6057BACB668AA45E0009D)
Complete name : D:downloadOf Mice and Men.1992.BDRip-AVC by schultz R.G.Resident.mkv
Format : Matroska
Format version : Version 4 / Version 2
File size : 2.74 GiB
Duration : 1 h 50 min
Overall bit rate : 3 537 kb/s
Encoded date : UTC 2018-02-07 11:01:27
Writing application : mkvmerge v8.9.0 ('Father Daughter') 64bit
Writing library : libebml v1.3.3 + libmatroska v1.4.4

Video
ID : 1
Format : AVC
Format/Info : Advanced Video Codec
Format profile : High@L4.1
Format settings, CABAC : Yes
Format settings, ReFrames : 9 frames
Codec ID : V_MPEG4/ISO/AVC
Duration : 1 h 50 min
Bit rate : 2 576 kb/s
Width : 1 024 pixels
Height : 556 pixels
Display aspect ratio : 1.85:1
Frame rate mode : Constant
Frame rate : 23.976 FPS
Color space : YUV
Chroma subsampling : 4:2:0
Bit depth : 8 bits
Scan type : Progressive
Bits/(Pixel*Frame) : 0.189
Stream size : 1.99 GiB (73%)
Writing library : x264 core 146 r2538 121396c
Encoding settings : cabac=1 / ref=9 / deblock=1:-3:-3 / analyse=0x3:0 / me=umh / subme=11 / psy=1 / psy_rd=1.00:0.00 / mixed_ref=1 / me_range=32 / chroma_me=1 / trellis=2 / 8x8dct=1 / cqm=0 / deadzone=21,11 / fast_pskip=0 / chroma_qp_offset=-2 / threads=12 / lookahead_threads=3 / sliced_threads=0 / nr=0 / decimate=0 / interlaced=0 / bluray_compat=0 / constrained_intra=0 / bframes=11 / b_pyramid=2 / b_adapt=2 / b_bias=0 / direct=3 / weightb=1 / open_gop=0 / weightp=2 / keyint=240 / keyint_min=23 / scenecut=40 / intra_refresh=0 / rc_lookahead=40 / rc=2pass / mbtree=0 / bitrate=2576 / ratetol=1.0 / qcomp=0.60 / qpmin=0 / qpmax=69 / qpstep=4 / cplxblur=20.0 / qblur=0.5 / vbv_maxrate=50000 / vbv_bufsize=62500 / nal_hrd=none / filler=0 / ip_ratio=1.40 / pb_ratio=1.30 / aq=1:1.00
Language : English
Default : Yes
Forced : No

Audio #1
ID : 2
Format : AC-3
Format/Info : Audio Coding 3
Mode extension : CM (complete main)
Format settings, Endianness : Big
Codec ID : A_AC3
Duration : 1 h 50 min
Bit rate mode : Constant
Bit rate : 192 kb/s
Channel(s) : 2 channels
Channel positions : Front: L R
Sampling rate : 48.0 kHz
Frame rate : 31.250 FPS (1536 spf)
Compression mode : Lossy
Stream size : 152 MiB (5%)
Title : НТВ+
Language : Russian
Default : Yes
Forced : No

Audio #2
ID : 3
Format : AC-3
Format/Info : Audio Coding 3
Mode extension : CM (complete main)
Format settings, Endianness : Big
Codec ID : A_AC3
Duration : 1 h 50 min
Bit rate mode : Constant
Bit rate : 384 kb/s
Channel(s) : 2 channels
Channel positions : Front: L R
Sampling rate : 48.0 kHz
Frame rate : 31.250 FPS (1536 spf)
Compression mode : Lossy
Stream size : 304 MiB (11%)
Title : М. Чадов
Language : Russian
Default : No
Forced : No

Audio #3
ID : 4
Format : AC-3
Format/Info : Audio Coding 3
Mode extension : CM (complete main)
Format settings, Endianness : Big
Codec ID : A_AC3
Duration : 1 h 50 min
Bit rate mode : Constant
Bit rate : 192 kb/s
Channel(s) : 2 channels
Channel positions : Front: L R
Sampling rate : 48.0 kHz
Frame rate : 31.250 FPS (1536 spf)
Compression mode : Lossy
Stream size : 152 MiB (5%)
Title : А. Гаврилов
Language : Russian
Default : No
Forced : No

Audio #4
ID : 5
Format : AC-3
Format/Info : Audio Coding 3
Mode extension : CM (complete main)
Format settings, Endianness : Big
Codec ID : A_AC3
Duration : 1 h 50 min
Bit rate mode : Constant
Bit rate : 192 kb/s
Channel(s) : 2 channels
Channel positions : Front: L R
Sampling rate : 48.0 kHz
Frame rate : 31.250 FPS (1536 spf)
Compression mode : Lossy
Stream size : 152 MiB (5%)
Title : Оригинал
Language : English
Default : No
Forced : No

Text #1
ID : 6
Format : UTF-8
Codec ID : S_TEXT/UTF8
Codec ID/Info : UTF-8 Plain Text
Duration : 1 h 41 min
Bit rate : 66 b/s
Count of elements : 1004
Stream size : 49.1 KiB (0%)
Title : full
Language : Russian
Default : No
Forced : No

Text #2
ID : 7
Format : UTF-8
Codec ID : S_TEXT/UTF8
Codec ID/Info : UTF-8 Plain Text
Duration : 1 h 46 min
Bit rate : 47 b/s
Count of elements : 1024
Stream size : 37.2 KiB (0%)
Title : full
Language : English
Default : No
Forced : No

Menu
00:00:00.000 : en:Chapter 1
00:05:00.000 : en:Chapter 2
00:10:00.000 : en:Chapter 3
00:15:00.000 : en:Chapter 4
00:20:00.000 : en:Chapter 5
00:25:00.000 : en:Chapter 6
00:30:00.000 : en:Chapter 7
00:35:00.000 : en:Chapter 8
00:40:00.000 : en:Chapter 9
00:45:00.000 : en:Chapter 10
00:50:00.000 : en:Chapter 11
00:55:00.000 : en:Chapter 12
01:00:00.000 : en:Chapter 13
01:05:00.000 : en:Chapter 14
01:10:00.000 : en:Chapter 15
01:15:00.000 : en:Chapter 16
01:20:00.000 : en:Chapter 17
01:25:00.000 : en:Chapter 18
01:30:00.000 : en:Chapter 19
01:35:00.000 : en:Chapter 20
01:40:00.000 : en:Chapter 21
01:45:00.000 : en:Chapter 22
01:50:00.000 : en:Chapter 23



Скачать О.мышах.и.людях.Of.Mice.and.Men.(Гэри.Синиз).[1992.драма.BDRip-AVC].[DVO]+[AVO]x2+[Оригинал.Eng]+[Sub.Rus.Eng]x2.torrent без регистрации
Золото ЗОЛОТАЯ РАЗДАЧА! СКАЧАННОЕ НЕ ЗАСЧИТЫВАЕТСЯ! Золото
Дата: Зарегистрирован   [ Тип: внешний ] Как тут cкачать?
MAGNET ссылка
MAGNET ссылка


Скачать .torrent

15 KB

Статус: проверено DHT
Скачан: торрент - 12 раз, раздача полностью - 0 раз
Размер: 2,74 GB
Оценка:  - (Голосов: 0)
Поблагодарили: 0
Поделиться ссылкой на эту раздачу с друзьями:
В контактеFacebookОдноклассникиTwitterLivejournalМой МирLiveinternet
 

 
Показать сообщения:    


Вы не можете начинать темы
Вы не можете отвечать на сообщения
Вы не можете редактировать свои сообщения
Вы не можете удалять свои сообщения
Вы не можете голосовать в опросах
Вы не можете прикреплять файлы к сообщениям
Вы можете скачивать файлы