Loading...
Error

Скачать Вердикт за деньги / Runaway Jury (Гэри Фледер) [2003, триллер, драма, WEB-DLRip] [720p] [Open Matte] [Dub]+[AVO]x2+[DVO]+[Eng] торрент без регистрации

Статистика раздачи
Размер:  6,95 GB   |    Скачан:  17 раз
Сидов:  1  [  0 KB/s  ]  
 
 
 
Автор Сообщение

Marsianka

[] 

Информация о фильме
Название: Вердикт за деньги
Оригинальное название: Runaway Jury
Год выпуска: 2003
Жанр: триллер, драма
Режиссер: Гэри Фледер
В ролях: Джон Кьюсак (Nicholas Easter), Джин Хэкмен (Rankin Fitch), Дастин Хоффман (Wendell Rohr), Рэйчел Вайс (Marlee), Брюс Дэвисон (Durwood Cable), Брюс МакГилл (Judge Harkin), Джереми Пивен (Lawrence Green), Ник Сирси (Doyle), Стенли Андерсон (Henry Jankle), Клифф Кёртис (Frank Herrera), Нестор Серрано (Janovich), Лиленд Орсер (Lamb)

О фильме:
Один из присяжных во время процесса над производителем оружия объединяет усилия с прелестной девушкой, чтобы получить контроль над всеми присяжными.

Ставки очень высоки, т. к. процесс «тянет» на несколько миллионов долларов, поэтому адвокат сталкивается с противодействием присяжного, который не остановится ни перед чем, чтобы решение присяжных осталось в силе…



MPAA: PG-13 - Детям до 13 лет просмотр не желателен

Страна: США
Студия: Epsilon Motion Pictures, New Regency Pictures, Regency Enterprises
Продолжительность: 02:07:40
Профессиональный (дублированный) Blu-ray CEE + Авторский (одноголосый, закадровый) Ю.Живов + Авторский (одноголосый, закадровый) С.Визгунов + Профессиональный (двухголосый, закадровый)


x264 [info]: frame I:1709 Avg QP:14.09 size:134904
x264 [info]: frame P:49464 Avg QP:15.91 size: 54860
x264 [info]: frame B:132236 Avg QP:17.69 size: 17513
-----------------------------------------------------
Общее
Уникальный идентификатор : 178487417497161927731141318631762335567 (0x86476D1BCC4664A48FA42E750742974F)
Полное имя : Вердикт.за.деньги.2003.WEB-DLRip.720p.KORSAR.Open.Matte.mkv
Формат : Matroska
Версия формата : Version 2
Размер файла : 6,95 Гбайт
Продолжительность : 2 ч. 7 м.
Общий поток : 7808 Кбит/сек
Дата кодирования : UTC 2018-01-30 08:10:33
Программа кодирования : mkvmerge v5.8.0 ('No Sleep / Pillow') built on Sep 2 2012 15:37:04
Библиотека кодирования : libebml v1.2.3 + libmatroska v1.3.0

Видео
Идентификатор : 1
Формат : AVC
Формат/Информация : Advanced Video Codec
Профиль формата : High@L4.1
Настройки формата : CABAC / 9 Ref Frames
Параметр CABAC формата : Да
Параметр RefFrames формата : 9 кадров
Идентификатор кодека : V_MPEG4/ISO/AVC
Продолжительность : 2 ч. 7 м.
Битрейт : 5503 Кбит/сек
Ширина : 1280 пикселей
Высота : 720 пикселей
Соотношение сторон : 16:9
Режим частоты кадров : Постоянный
Частота кадров : 23,976 (24000/1001) кадра/сек
Цветовое пространство : YUV
Субдискретизация насыщенности : 4:2:0
Битовая глубина : 8 бит
Тип развёртки : Прогрессивная
Бит/(Пиксели*Кадры) : 0.249
Размер потока : 4,76 Гбайт (69%)
Заголовок : RIP | MZMA
Библиотека кодирования : x264 core 152 r2851kMod ba24899
Настройки программы : cabac=1 / ref=9 / deblock=1:-2:-2 / analyse=0x3:0x113 / me=umh / subme=11 / psy=1 / fade_compensate=0.00 / psy_rd=0.90:0.05 / mixed_ref=1 / me_range=48 / chroma_me=1 / trellis=2 / 8x8dct=1 / cqm=0 / deadzone=21,11 / fast_pskip=0 / chroma_qp_offset=-3 / threads=6 / lookahead_threads=1 / sliced_threads=0 / nr=0 / decimate=0 / interlaced=0 / bluray_compat=0 / constrained_intra=0 / bframes=16 / b_pyramid=2 / b_adapt=2 / b_bias=0 / direct=3 / weightb=1 / open_gop=0 / weightp=2 / keyint=240 / keyint_min=23 / scenecut=40 / intra_refresh=0 / rc_lookahead=40 / rc=2pass / mbtree=0 / bitrate=5503 / ratetol=1.0 / qcomp=0.60 / qpmin=0 / qpmax=69 / qpstep=4 / cplxblur=20.0 / qblur=0.5 / vbv_maxrate=50000 / vbv_bufsize=62500 / nal_hrd=none / filler=0 / ip_ratio=1.25 / pb_ratio=1.30 / aq=3:0.90
Язык : English
Default : Да
Forced : Нет
Цветовой диапазон : Limited
Основные цвета : BT.709
Характеристики трансфера : BT.709
Коэффициенты матрицы : BT.709

Аудио #1
Идентификатор : 2
Формат : AC-3
Формат/Информация : Audio Coding 3
Идентификатор кодека : A_AC3
Продолжительность : 2 ч. 7 м.
Вид битрейта : Постоянный
Битрейт : 640 Кбит/сек
Каналы : 6 каналов
Расположение каналов : Front: L C R, Side: L R, LFE
Частота : 48,0 КГц
Частота кадров : 31,250 кадров/сек (1536 SPF)
Битовая глубина : 16 бит
Метод сжатия : С потерями
Размер потока : 584 Мбайт (8%)
Заголовок : DUB | Blu-ray CEE, Гемини
Язык : Russian
По умолчанию : Да
Принудительно : Нет

Аудио #2
Идентификатор : 3
Формат : AC-3
Формат/Информация : Audio Coding 3
Идентификатор кодека : A_AC3
Продолжительность : 2 ч. 7 м.
Вид битрейта : Постоянный
Битрейт : 640 Кбит/сек
Каналы : 6 каналов
Расположение каналов : Front: L C R, Side: L R, LFE
Частота : 48,0 КГц
Частота кадров : 31,250 кадров/сек (1536 SPF)
Битовая глубина : 16 бит
Метод сжатия : С потерями
Задержка видео : 6 мс.
Размер потока : 584 Мбайт (8%)
Заголовок : AVO | Ю. Живов
Язык : Russian
По умолчанию : Нет
Принудительно : Нет

Аудио #3
Идентификатор : 4
Формат : AC-3
Формат/Информация : Audio Coding 3
Идентификатор кодека : A_AC3
Продолжительность : 2 ч. 7 м.
Вид битрейта : Постоянный
Битрейт : 192 Кбит/сек
Каналы : 2 канала
Расположение каналов : Front: L R
Частота : 48,0 КГц
Частота кадров : 31,250 кадров/сек (1536 SPF)
Битовая глубина : 16 бит
Метод сжатия : С потерями
Задержка видео : 6 мс.
Размер потока : 175 Мбайт (2%)
Заголовок : AVO | С. Визгунов
Язык : Russian
По умолчанию : Нет
Принудительно : Нет

Аудио #4
Идентификатор : 5
Формат : AC-3
Формат/Информация : Audio Coding 3
Идентификатор кодека : A_AC3
Продолжительность : 2 ч. 7 м.
Вид битрейта : Постоянный
Битрейт : 192 Кбит/сек
Каналы : 2 канала
Расположение каналов : Front: L R
Частота : 48,0 КГц
Частота кадров : 31,250 кадров/сек (1536 SPF)
Битовая глубина : 16 бит
Метод сжатия : С потерями
Задержка видео : 6 мс.
Размер потока : 175 Мбайт (2%)
Заголовок : DVO
Язык : Ukrainian
По умолчанию : Нет
Принудительно : Нет

Аудио #5
Идентификатор : 6
Формат : E-AC-3
Формат/Информация : Enhanced Audio Coding 3
Идентификатор кодека : A_EAC3
Продолжительность : 2 ч. 7 м.
Вид битрейта : Постоянный
Битрейт : 640 Кбит/сек
Каналы : 6 каналов
Расположение каналов : Front: L C R, Side: L R, LFE
Частота : 48,0 КГц
Частота кадров : 187,500 кадров/сек (256 SPF)
Метод сжатия : С потерями
Задержка видео : 6 мс.
Размер потока : 584 Мбайт (8%)
Заголовок : Original
Язык : English
По умолчанию : Нет
Принудительно : Нет

Текст #1
Идентификатор : 7
Формат : UTF-8
Идентификатор кодека : S_TEXT/UTF8
Идентификатор кодека/Информация : UTF-8 Plain Text
Заголовок : Blu-ray CEE
Язык : Russian
По умолчанию : Нет
Принудительно : Нет

Текст #2
Идентификатор : 8
Формат : UTF-8
Идентификатор кодека : S_TEXT/UTF8
Идентификатор кодека/Информация : UTF-8 Plain Text
Заголовок : Blu-ray CEE
Язык : English
По умолчанию : Нет
Принудительно : Нет

Текст #3
Идентификатор : 9
Формат : UTF-8
Идентификатор кодека : S_TEXT/UTF8
Идентификатор кодека/Информация : UTF-8 Plain Text
Заголовок : Amazon
Язык : English
По умолчанию : Нет
Принудительно : Нет

Текст #4
Идентификатор : 10
Формат : UTF-8
Идентификатор кодека : S_TEXT/UTF8
Идентификатор кодека/Информация : UTF-8 Plain Text
Заголовок : Amazon | SDH
Язык : English
По умолчанию : Нет
Принудительно : Нет

Текст #5
Идентификатор : 11
Формат : UTF-8
Идентификатор кодека : S_TEXT/UTF8
Идентификатор кодека/Информация : UTF-8 Plain Text
Язык : Finnish
По умолчанию : Нет
Принудительно : Нет

Меню
00:00:00.000 : en:00:00:00.000
00:03:18.804 : en:00:03:21.492
00:08:59.228 : en:00:09:01.916
00:11:15.864 : en:00:11:18.552
00:13:44.096 : en:00:13:46.784
00:18:04.022 : en:00:18:06.710
00:24:48.176 : en:00:24:50.864
00:28:53.171 : en:00:28:55.859
00:37:01.325 : en:00:37:04.013
00:39:14.667 : en:00:39:17.355
00:46:38.068 : en:00:46:40.756
00:49:05.382 : en:00:49:08.070
00:54:07.725 : en:00:54:10.413
00:59:11.571 : en:00:59:14.259
01:05:37.289 : en:01:05:39.977
01:15:49.276 : en:01:15:51.964
01:19:25.283 : en:01:19:27.971
01:25:10.711 : en:01:25:13.399
01:30:57.099 : en:01:30:59.787
01:32:14.260 : en:01:32:16.948
01:36:00.152 : en:01:36:02.840
01:43:08.622 : en:01:43:11.310
01:46:46.047 : en:01:46:48.735
01:50:44.494 : en:01:50:47.182
01:55:21.020 : en:01:55:23.708
01:56:16.993 : en:01:56:19.681
01:59:00.656 : en:01:59:03.344
02:03:00.521 : en:02:03:03.209

Файл
Качество: WEB-DLRip 720p | Open Matte
Формат: Matroska
Видео: MPEG-4 AVC, 5503 Кбит/сек, 1280x720, 23,976 кадра/сек
Аудио#1: Russian: 48 kHz, DTS, 3/2 (L,C,R,l,r) + LFE ch, ~755 kbps avg |Дубляж, Blu-ray CEE|
Аудио#2: Russian: 48 kHz, AC3, 3/2 (L,C,R,l,r) + LFE ch, ~640 kbps avg |Авторский, Ю.Живов|
Аудио#3: Russian: 48 kHz, AC3, 2/0 (L,R) ch, ~192 kbps avg |Авторский, С.Визгунов|
Аудио#4: Ukrainian: 48 kHz, AC3, 2/0 (L,R) ch, ~192 kbps avg |Двухголосый закадровый| 2+2
Аудио#5: English: 48 kHz, EAC3, 3/2 (L,C,R,l,r) + LFE ch, ~640 kbps avg
Релиз от:



Скачать Вердикт.за.деньги.Runaway.Jury.(Гэри.Фледер).[2003.триллер.драма.WEB-DLRip].[720p].[Open.Matte].[Dub]+[AVO]x2+[DVO]+[Eng].torrent без регистрации
Золото ЗОЛОТАЯ РАЗДАЧА! СКАЧАННОЕ НЕ ЗАСЧИТЫВАЕТСЯ! Золото
Дата: Зарегистрирован   [ Тип: внутренний ] Как тут cкачать?
MAGNET ссылка
MAGNET ссылка


Скачать .torrent

36 KB

Статус: проверено DHT
Скачан: торрент - 17 раз, раздача полностью - 5 раз
Размер: 6,95 GB
Оценка:  - (Голосов: 0)
Поблагодарили: 0
Поделиться ссылкой на эту раздачу с друзьями:
В контактеFacebookОдноклассникиTwitterLivejournalМой МирLiveinternet
 

 
Показать сообщения:    


Вы не можете начинать темы
Вы не можете отвечать на сообщения
Вы не можете редактировать свои сообщения
Вы не можете удалять свои сообщения
Вы не можете голосовать в опросах
Вы не можете прикреплять файлы к сообщениям
Вы можете скачивать файлы