Loading...
Error

Скачать Тайна 7 сестер / Seven Sisters (Томми Виркола) [2017, фантастика, боевик, триллер, драма, BDRemux] [2160p (4K HDR)] [Dub (лицензия)]+[AVO (Живов)]+[Ukr]+[Eng]+[Sub Rus, Eng] торрент без регистрации

Статистика раздачи
Размер:  71,57 GB   |    Скачан:  19 раз
Сидов:  1  [  4 KB/s  ]  
 
 
 
Автор Сообщение

МихаНЕзатор

[] 

Информация о фильме
Название: Тайна 7 сестер
Оригинальное название: What Happened to Monday (Seven Sisters)
Год выхода: 2017
Жанр: Фантастика, триллер
Режиссер: Томми Виркола

В ролях: Нуми Рапас, Марван Кензари, Уиллем Дефо, Роберт Вагнер, Гленн Клоуз, Лара Дэкаро, Пол Сверре Валхейм Хаген, Адетомива Едун, Кристиан Рубек

О фильме: Не столь отдаленное будущее. Планету сотрясает череда демографических взрывов. Природные ресурсы заканчиваются и когтистая рука уже тянется к выключателю. Человечество обращается к генетикам, которые изобретают еще более урожайные сорта картошки и укропа. Голод отступает, очередная волна младенцев - нет. Принимается закон "одна семья - один ребенок". Лишних детей замораживают в криокапсулах и аккуратно укладывают крест-накрест штабелем в большой холодильник до лучших времен. И когда в одной семье рождается семеро сестер-близняшек, их добрый дедушка вероломно скрывает этот постыдный факт и прячет малышек на чердаке. Он дает сестрам имена в честь дней недели, обучает приемам конспирации и маскировки на местности. Так девочки и живут 30 лет, появляясь на людях по одной - каждая в свой день. Но однажды Понедельник уходит и не возвращается...



Страна: Великобритания, Франция, Бельгия, США
Студия: Nexus Factory, Raffaella Productions, SND, Title Media, Vendome Pictures
Продолжительность: 02:03:30
Перевод: Дублированный, авторский (Ю. Живов)

Файл
Кодек: HEVC
Качество: Blu-Ray Remux (2160p)
Видео: HEVC, HDR, 72,0 Мбит/с, 3840x2160, 23.976 Кадр/с
Звук:
Аудио #1: AC3, 6 ch, 640 Kbps - Русский, Дублированный
Аудио #2: DTS-HD MA, 6 ch, 3072 Kbps - Русский, Дублированный
Аудио #3: DTS-HD MA, 6 ch, 2388 Kbps - Авторский, Ю.Живов
Аудио #4: AC3, 2 ch, 192 - Kbps - Украинский
Аудио #5: DTS-HD MA, 6 ch, 3072 Kbps - Английский
Аудио #6: DTS, 6 ch, 1509 Kbps - Английский
Субтитры: Русские (Full), английские (Full)

АНОНСЫ ПОПУЛЯРНЫХ РАЗДАЧ

Общее
Уникальный идентификатор : 231619422443907375998071171215250509953 (0xAE4047341809CA2322747721EA755081)
Полное имя : What.Happened.to.Monday.2017.2160p.BluRay.REMUX.HEVC.HDR.DTS-HD.MA.5.1.IVA(2xRUS.UKR.ENG).mkv
Формат : Matroska
Версия формата : Version 4 / Version 2
Размер файла : 71,6 Гбайт
Продолжительность : 2 ч. 3 м.
Общий поток : 83,0 Мбит/сек
Название фильма : What.Happened.to.Monday.2017.2160p.BluRay.REMUX.HEVC.HDR.DTS-HD.MA.5.1.IVA(2xRUS.UKR.ENG)
Дата кодирования : UTC 2018-02-08 10:53:23
Программа кодирования : mkvmerge v19.0.0 ('Brave Captain') 64-bit
Библиотека кодирования : libebml v1.3.5 + libmatroska v1.4.8
Обложка : Yes

Видео
Идентификатор : 1
Формат : HEVC
Формат/Информация : High Efficiency Video Coding
Профиль формата : Main 10@L5.1@High
Идентификатор кодека : V_MPEGH/ISO/HEVC
Продолжительность : 2 ч. 3 м.
Битрейт : 72,0 Мбит/сек
Ширина : 3840 пикселей
Высота : 2160 пикселей
Соотношение сторон : 16:9
Режим частоты кадров : Постоянный
Частота кадров : 24,000 кадра/сек
Цветовое пространство : YUV
Субдискретизация насыщенности : 4:2:0 (Type 2)
Битовая глубина : 10 бит
Бит/(Пиксели*Кадры) : 0.362
Размер потока : 62,1 Гбайт (87%)
Заголовок : What.Happened.to.Monday.2017.2160p.BluRay.REMUX.HEVC.HDR
Библиотека кодирования : ATEME Titan File 3.8.0 (4.8.0.0)
Default : Да
Forced : Нет
Цветовой диапазон : Limited
Основные цвета : BT.2020
Характеристики трансфера : PQ
Коэффициенты матрицы : BT.2020 non-constant
MasteringDisplay_ColorPrimaries : BT.2020
MasteringDisplay_Luminance : min: 0.0000 cd/m2, max: 1000 cd/m2
MaxCLL : 1000 cd/m2
MaxFALL : 188 cd/m2

Аудио #1
Идентификатор : 2
Формат : AC-3
Формат/Информация : Audio Coding 3
Идентификатор кодека : A_AC3
Продолжительность : 2 ч. 3 м.
Вид битрейта : Постоянный
Битрейт : 640 Кбит/сек
Каналы : 6 каналов
Расположение каналов : Front: L C R, Side: L R, LFE
Частота : 48,0 КГц
Частота кадров : 31,250 кадров/сек (1536 SPF)
Битовая глубина : 16 бит
Метод сжатия : С потерями
Размер потока : 564 Мбайт (1%)
Заголовок : | Дублированный, BD RUS |
Язык : Russian
ServiceKind/String : Complete Main
Default : Да
Forced : Нет

Аудио #2
Идентификатор : 3
Формат : DTS
Формат/Информация : Digital Theater Systems
Профиль формата : MA / Core
Идентификатор кодека : A_DTS
Продолжительность : 2 ч. 3 м.
Вид битрейта : Переменный / Постоянный
Битрейт : 3072 Кбит/сек / 1509 Кбит/сек
Каналы : 6 каналов
Расположение каналов : Front: L C R, Side: L R, LFE
Частота : 48,0 КГц
Частота кадров : 93,750 кадра/сек (512 SPF)
Битовая глубина : 24 бит
Метод сжатия : Без потерь / Lossy
Размер потока : 2,63 Гбайт (4%)
Заголовок : | Дублированный, BD RUS |
Язык : Russian
Default : Нет
Forced : Нет

Аудио #3
Идентификатор : 4
Формат : DTS
Формат/Информация : Digital Theater Systems
Профиль формата : MA / Core
Идентификатор кодека : A_DTS
Продолжительность : 2 ч. 3 м.
Вид битрейта : Переменный / Постоянный
Битрейт : 2388 Кбит/сек / 1509 Кбит/сек
Каналы : 6 каналов
Расположение каналов : Front: L C R, Side: L R, LFE
Частота : 48,0 КГц
Частота кадров : 93,750 кадра/сек (512 SPF)
Битовая глубина : 16 бит
Метод сжатия : Без потерь / Lossy
Размер потока : 2,06 Гбайт (3%)
Заголовок : | Авторский, Ю. Живов |
Язык : Russian
Default : Нет
Forced : Нет

Аудио #4
Идентификатор : 5
Формат : AC-3
Формат/Информация : Audio Coding 3
Идентификатор кодека : A_AC3
Продолжительность : 2 ч. 3 м.
Вид битрейта : Постоянный
Битрейт : 192 Кбит/сек
Каналы : 2 канала
Расположение каналов : Front: L R
Частота : 48,0 КГц
Частота кадров : 31,250 кадров/сек (1536 SPF)
Битовая глубина : 16 бит
Метод сжатия : С потерями
Размер потока : 169 Мбайт (0%)
Заголовок : | Дублированный, UKR |
Язык : Ukrainian
ServiceKind/String : Complete Main
Default : Нет
Forced : Нет

Аудио #5
Идентификатор : 6
Формат : DTS
Формат/Информация : Digital Theater Systems
Профиль формата : MA / Core
Идентификатор кодека : A_DTS
Продолжительность : 2 ч. 3 м.
Вид битрейта : Переменный / Постоянный
Битрейт : 3198 Кбит/сек / 1509 Кбит/сек
Каналы : 6 каналов
Расположение каналов : Front: L C R, Side: L R, LFE
Частота : 48,0 КГц
Частота кадров : 93,750 кадра/сек (512 SPF)
Битовая глубина : 24 бит
Метод сжатия : Без потерь / Lossy
Размер потока : 2,76 Гбайт (4%)
Заголовок : | Original |
Язык : English
Default : Нет
Forced : Нет

Аудио #6
Идентификатор : 7
Формат : DTS
Формат/Информация : Digital Theater Systems
Идентификатор кодека : A_DTS
Продолжительность : 2 ч. 3 м.
Вид битрейта : Постоянный
Битрейт : 1509 Кбит/сек
Каналы : 6 каналов
Расположение каналов : Front: L C R, Side: L R, LFE
Частота : 48,0 КГц
Частота кадров : 93,750 кадра/сек (512 SPF)
Битовая глубина : 16 бит
Метод сжатия : С потерями
Размер потока : 1,30 Гбайт (2%)
Заголовок : | English |
Язык : English
Default : Нет
Forced : Нет

Текст #1
Идентификатор : 8
Формат : UTF-8
Идентификатор кодека : S_TEXT/UTF8
Идентификатор кодека/Информация : UTF-8 Plain Text
Продолжительность : 1 ч. 56 м.
Битрейт : 48 бит/сек
ElementCount : 963
Размер потока : 41,1 Кбайт (0%)
Заголовок : Full
Язык : Russian
Default : Нет
Forced : Нет

Текст #2
Идентификатор : 9
Формат : UTF-8
Идентификатор кодека : S_TEXT/UTF8
Идентификатор кодека/Информация : UTF-8 Plain Text
Продолжительность : 1 ч. 56 м.
Битрейт : 33 бит/сек
ElementCount : 903
Размер потока : 28,5 Кбайт (0%)
Заголовок : Full
Язык : English
Default : Нет
Forced : Нет

Меню
00:00:00.000 : en: Chapter 1
00:09:13.667 : en: Chapter 2
00:20:16.792 : en: Chapter 3
00:29:12.333 : en: Chapter 4
00:40:32.000 : en: Chapter 5
00:51:51.750 : en: Chapter 6
00:58:04.792 : en: Chapter 7
01:14:19.833 : en: Chapter 8
01:22:25.000 : en: Chapter 9
01:32:37.958 : en: Chapter 10
01:42:29.792 : en: Chapter 11
01:49:55.875 : en: Chapter 12



Скачать Тайна.7.сестер.Seven.Sisters.(Томми.Виркола).[2017.фантастика.боевик.триллер.драма.BDRemux].[2160p.(4K.HDR)].[Dub.(лицензия)]+[AVO.(Живов)]+[Ukr]+[Eng]+[Sub.Rus.Eng].torrent без регистрации
Золото ЗОЛОТАЯ РАЗДАЧА! СКАЧАННОЕ НЕ ЗАСЧИТЫВАЕТСЯ! Золото
Дата: Зарегистрирован   [ Тип: внутренний ] Как тут cкачать?
MAGNET ссылка
MAGNET ссылка


Скачать .torrent

91 KB

Статус: проверено DHT
Скачан: торрент - 19 раз, раздача полностью - 10 раз
Размер: 71,57 GB
Оценка:  - (Голосов: 0)
Поблагодарили: 2
Поделиться ссылкой на эту раздачу с друзьями:
В контактеFacebookОдноклассникиTwitterLivejournalМой МирLiveinternet
 

 
Показать сообщения:    


Вы не можете начинать темы
Вы не можете отвечать на сообщения
Вы не можете редактировать свои сообщения
Вы не можете удалять свои сообщения
Вы не можете голосовать в опросах
Вы не можете прикреплять файлы к сообщениям
Вы можете скачивать файлы