Loading...
Error

Скачать Галлиполи / Gallipoli (Питер Уир) [1981, драма, приключения, военный, история, BDRip-AVC] [DVO]+[Оригинал Eng]+[Sub Rus, Eng]x2 торрент без регистрации

Статистика раздачи
Размер:  4,16 GB   |    Скачан:  17 раз
Сидов:  7  [  0 KB/s  ]  
 
 
 
Автор Сообщение

Marsianka

[] 

Информация о фильме
Название: Галлиполи
Оригинальное название: Gallipoli
Год выпуска: 1981
Страна: Австралия
Жанр: драма, приключения, военный, история
Перевод: Профессиональный (двухголосый, закадровый) Премьер Видео Фильм
Субтитры: русские (full), английские (full)
Продолжительность: 01:50:53
Режиссер: Питер Уир
В ролях:

Мэл Гибсон, Марк Ли, Билл Керр, Харольд Хопкинс (Les McCann), Чарльз Латалу Юнипингу (Zac), Хит Харрис (Stockman), Рон Грэхэм (Wallace Hamilton), Герда Николсон (Rose Hamilton), Роберт Грубб, Тим МакКензи, Дэвид Арге, Брайан Андерсон (Railway Foreman)
Описание:
1915 год. Два романтически настроенных молодых человека вступают в ряды австралийских вооруженных сил. После ускоренной подготовки в «учебке», затерянной в песках близ древнеегипетских пирамид, приятелей отправляют в полк, который ведет боевые действия против турецкой армии.
Рейтинг:

MPAA: PG - Рекомендуется присутствие родителей
Качество: BDRip-AVC
Формат: MKV
Видео: AVC, 1024x436 (2.35:1), 4987 kbps, 24 fps, 0,465 bpp
Аудио №1: русский / AC3 / 2.0 / 48 kHz / 192 kbps / DVO Премьер Видео Фильм
Аудио №2: английский / AC3 / 2.0 / 48 kHz / 192 kbps / Оригинал
Навигация по главам: есть
Релиз от:


x264 [info]: frame I:1053 Avg QP:18.58 size: 90124
x264 [info]: frame P:33644 Avg QP:21.10 size: 42093
x264 [info]: frame B:124976 Avg QP:22.85 size: 21089

General
Unique ID : 198064557668545335992028421649759460959 (0x9501D8A412DFCE548AA1ABCC59B7DE5F)
Complete name : D:downloadGallipoli.1981.BDRip-AVC by schultz R.G.Resident.mkv
Format : Matroska
Format version : Version 4 / Version 2
File size : 4.16 GiB
Duration : 1 h 50 min
Overall bit rate : 5 372 kb/s
Encoded date : UTC 2018-02-08 11:05:19
Writing application : mkvmerge v8.9.0 ('Father Daughter') 64bit
Writing library : libebml v1.3.3 + libmatroska v1.4.4

Video
ID : 1
Format : AVC
Format/Info : Advanced Video Codec
Format profile : High@L4.1
Format settings, CABAC : Yes
Format settings, ReFrames : 9 frames
Codec ID : V_MPEG4/ISO/AVC
Duration : 1 h 50 min
Bit rate : 4 987 kb/s
Width : 1 024 pixels
Height : 436 pixels
Display aspect ratio : 2.35:1
Frame rate mode : Constant
Frame rate : 24.000 FPS
Color space : YUV
Chroma subsampling : 4:2:0
Bit depth : 8 bits
Scan type : Progressive
Bits/(Pixel*Frame) : 0.465
Stream size : 3.86 GiB (93%)
Writing library : x264 core 146 r2538 121396c
Encoding settings : cabac=1 / ref=9 / deblock=1:-3:-3 / analyse=0x3:0 / me=umh / subme=11 / psy=1 / psy_rd=1.00:0.00 / mixed_ref=1 / me_range=32 / chroma_me=1 / trellis=2 / 8x8dct=1 / cqm=0 / deadzone=21,11 / fast_pskip=0 / chroma_qp_offset=-2 / threads=12 / lookahead_threads=3 / sliced_threads=0 / nr=0 / decimate=0 / interlaced=0 / bluray_compat=0 / constrained_intra=0 / bframes=10 / b_pyramid=2 / b_adapt=2 / b_bias=0 / direct=3 / weightb=1 / open_gop=0 / weightp=2 / keyint=240 / keyint_min=24 / scenecut=40 / intra_refresh=0 / rc_lookahead=40 / rc=2pass / mbtree=0 / bitrate=4987 / ratetol=1.0 / qcomp=0.60 / qpmin=0 / qpmax=69 / qpstep=4 / cplxblur=20.0 / qblur=0.5 / vbv_maxrate=50000 / vbv_bufsize=62500 / nal_hrd=none / filler=0 / ip_ratio=1.40 / pb_ratio=1.30 / aq=1:1.00
Language : English
Default : Yes
Forced : No

Audio #1
ID : 2
Format : AC-3
Format/Info : Audio Coding 3
Mode extension : CM (complete main)
Format settings, Endianness : Big
Codec ID : A_AC3
Duration : 1 h 50 min
Bit rate mode : Constant
Bit rate : 192 kb/s
Channel(s) : 2 channels
Channel positions : Front: L R
Sampling rate : 48.0 kHz
Frame rate : 31.250 FPS (1536 spf)
Compression mode : Lossy
Stream size : 152 MiB (4%)
Title : Премьер Видео Фильм
Language : Russian
Default : Yes
Forced : No

Audio #2
ID : 3
Format : AC-3
Format/Info : Audio Coding 3
Mode extension : CM (complete main)
Format settings, Endianness : Big
Codec ID : A_AC3
Duration : 1 h 50 min
Bit rate mode : Constant
Bit rate : 192 kb/s
Channel(s) : 2 channels
Channel positions : Front: L R
Sampling rate : 48.0 kHz
Frame rate : 31.250 FPS (1536 spf)
Compression mode : Lossy
Stream size : 152 MiB (4%)
Title : Оригинал
Language : English
Default : No
Forced : No

Text #1
ID : 4
Format : UTF-8
Codec ID : S_TEXT/UTF8
Codec ID/Info : UTF-8 Plain Text
Duration : 1 h 50 min
Bit rate : 76 b/s
Count of elements : 1085
Stream size : 61.7 KiB (0%)
Title : full
Language : Russian
Default : No
Forced : No

Text #2
ID : 5
Format : UTF-8
Codec ID : S_TEXT/UTF8
Codec ID/Info : UTF-8 Plain Text
Duration : 1 h 45 min
Bit rate : 45 b/s
Count of elements : 1042
Stream size : 35.2 KiB (0%)
Title : full
Language : English
Default : No
Forced : No

Menu
00:00:00.000 : en:Chapter 1
00:09:42.915 : en:Chapter 2
00:17:31.790 : en:Chapter 3
00:22:42.540 : en:Chapter 4
00:27:34.040 : en:Chapter 5
00:40:42.041 : en:Chapter 6
00:50:01.666 : en:Chapter 7
00:56:59.458 : en:Chapter 8
01:02:51.125 : en:Chapter 9
01:15:19.250 : en:Chapter 10
01:24:39.166 : en:Chapter 11
01:31:32.457 : en:Chapter 12
01:34:37.707 : en:Chapter 13
01:41:23.875 : en:Chapter 14
01:47:59.625 : en:Chapter 15



Скачать Галлиполи.Gallipoli.(Питер.Уир).[1981.драма.приключения.военный.история.BDRip-AVC].[DVO]+[Оригинал.Eng]+[Sub.Rus.Eng]x2.torrent без регистрации
Золото ЗОЛОТАЯ РАЗДАЧА! СКАЧАННОЕ НЕ ЗАСЧИТЫВАЕТСЯ! Золото
Дата: Зарегистрирован   [ Тип: внешний ] Как тут cкачать?
MAGNET ссылка
MAGNET ссылка


Скачать .torrent

11 KB

Статус: проверено DHT
Скачан: торрент - 17 раз, раздача полностью - 9 раз
Размер: 4,16 GB
Оценка:  - (Голосов: 0)
Поблагодарили: 0
Поделиться ссылкой на эту раздачу с друзьями:
В контактеFacebookОдноклассникиTwitterLivejournalМой МирLiveinternet
 

 
Показать сообщения:    


Вы не можете начинать темы
Вы не можете отвечать на сообщения
Вы не можете редактировать свои сообщения
Вы не можете удалять свои сообщения
Вы не можете голосовать в опросах
Вы не можете прикреплять файлы к сообщениям
Вы можете скачивать файлы