Loading...
Error

Скачать Пожалуйста, приготовьтесь / Please Stand By (Бен Луин) [2017, драма, комедия, WEB-DL] [1080p] [MVO (HDrezka Studio)]+[Eng] торрент без регистрации

Статистика раздачи
Размер:  3,49 GB   |    Скачан:  21 раз
Сидов:  3  [  0 KB/s  ]   Личеров:  1  [  0 KB/s  ]  
 
 
 
Автор Сообщение

МихаНЕзатор

[] 

Название: Пожалуйста, приготовьтесь
Оригинальное название: Please Stand By
Год выпуска: 2017
Жанр: Драма, комедия
Выпущено: США, 2929 Productions
Режиссер: Бен Луин

В ролях: Дакота Фэннинг, Тони Коллетт, Элис Ив, Ривер Александр, Марла Гиббс, Джессика Рот, Майкл Сталь-Дэвид, Стефани Аллен, Мэттью Кардаропле, Мэтт Корбой

О фильме: Сюжет художественного фильма «Пожалуйста, приготовьтесь» вертится вокруг молодой девушки Вэнди, страдающей аутизмом. Несмотря на болезнь девушка пытается вести нормальный образ жизни и в этом ей помогает сотрудница специального центра Скотти, в котором живет Вэнди. Со временем состояние девушки сильно улучшилось: она устроилась на работу в ресторан быстрого питания и завела четвероногого друга, за которым ухаживает. Вэнди может заботиться о себе сама, но сестра Одри отказывается забирать ее из центра, что приводит к срыву. Больше всего в жизни Вэнди обожает фантастический сериал «Звездный путь», который может смотреть бесконечно. Она даже пишет собственную книгу, главным героем которой стал Спок. Когда же объявляют конкурс на лучший сценарий для «Звездного пути», то Вэнди приступает к работе. Проверив и перепроверив сценарий она собирается отправить его, но не успевает к нужной дате, поэтому решает отправиться в Лос-Анджелес, чтобы доставить сценарий лично.

Релиз от: WORLDSM

Качество: WEB-DL (1080p)
Видео: MPEG-4 AVC, 4545 Кбит/с, 1920x798
Аудио#1: Русский (AC3, 6 ch, 448 Кбит/с)
Аудио#2: Английский (AC3, 6 ch, 384 Кбит/с)
Продолжительность: 01:32:46
Перевод: Любительский (многоголосый, закадровый) [HDrezka Studio]
Субтитры: Русские, английские

АНОНСЫ ПОПУЛЯРНЫХ РАЗДАЧ
General
Unique ID : 238240942663232230089115487914937588283 (0xB33B895B0A572E396828732F07389A3B)
Format : Matroska
Format version : Version 4 / Version 2
File size : 3.49 GiB
Duration : 1 h 32 min
Overall bit rate : 5 380 kb/s
Encoded date : UTC 2018-02-07 20:17:22
Writing application : mkvmerge v20.0.0 ('I Am The Sun') 64-bit
Writing library : libebml v1.3.5 + libmatroska v1.4.8

Video
ID : 1
Format : AVC
Format/Info : Advanced Video Codec
Format profile : High@L4
Format settings, CABAC : Yes
Format settings, ReFrames : 5 frames
Codec ID : V_MPEG4/ISO/AVC
Duration : 1 h 32 min
Bit rate : 4 546 kb/s
Width : 1 920 pixels
Height : 798 pixels
Display aspect ratio : 2.40:1
Frame rate mode : Constant
Frame rate : 23.976 (23976/1000) FPS
Color space : YUV
Chroma subsampling : 4:2:0
Bit depth : 8 bits
Scan type : Progressive
Bits/(Pixel*Frame) : 0.124
Stream size : 2.95 GiB (84%)
Language : English
Default : Yes
Forced : No
Color range : Limited
Color primaries : BT.709
Transfer characteristics : BT.709
Matrix coefficients : BT.709

Audio #1
ID : 2
Format : AC-3
Format/Info : Audio Coding 3
Mode extension : CM (complete main)
Format settings, Endianness : Big
Codec ID : A_AC3
Duration : 1 h 32 min
Bit rate mode : Constant
Bit rate : 448 kb/s
Channel(s) : 6 channels
Channel positions : Front: L C R, Side: L R, LFE
Sampling rate : 48.0 kHz
Frame rate : 31.250 FPS (1536 spf)
Compression mode : Lossy
Delay relative to video : -42 ms
Stream size : 297 MiB (8%)
Language : Russian
Default : Yes
Forced : No

Audio #2
ID : 3
Format : AC-3
Format/Info : Audio Coding 3
Mode extension : CM (complete main)
Format settings, Endianness : Big
Codec ID : A_AC3
Duration : 1 h 32 min
Bit rate mode : Constant
Bit rate : 384 kb/s
Channel(s) : 6 channels
Channel positions : Front: L C R, Side: L R, LFE
Sampling rate : 48.0 kHz
Frame rate : 31.250 FPS (1536 spf)
Compression mode : Lossy
Delay relative to video : -42 ms
Stream size : 255 MiB (7%)
Language : English
Default : No
Forced : No

Text #1
ID : 4
Format : UTF-8
Codec ID : S_TEXT/UTF8
Codec ID/Info : UTF-8 Plain Text
Duration : 1 h 26 min
Bit rate : 73 b/s
Count of elements : 1083
Stream size : 46.8 KiB (0%)
Language : Russian
Default : Yes
Forced : No

Text #2
ID : 5
Format : UTF-8
Codec ID : S_TEXT/UTF8
Codec ID/Info : UTF-8 Plain Text
Duration : 1 h 26 min
Bit rate : 47 b/s
Count of elements : 1082
Stream size : 30.2 KiB (0%)
Language : English
Default : No
Forced : No

Menu
00:00:00.000 : en:Routine
00:06:56.332 : en:Writing
00:11:08.542 : en:Welcome to Cinnabon
00:17:04.356 : en:Please Stand By
00:22:42.944 : en:Sunrise
00:28:06.642 : en:Station
00:33:36.972 : en:On the road
00:37:52.102 : en:If I am lost
00:45:14.502 : en:Senior bus
00:50:29.024 : en:Hospitalized
00:58:54.029 : en:Re-write
01:02:41.673 : en:Waiting for the bus
01:09:11.979 : en:Klingon
01:15:07.834 : en:Submission
01:20:42.585 : en:Dear Wendy
01:26:04.114 : en:Can I hold her



Скачать Пожалуйста.приготовьтесь.Please.Stand.By.(Бен.Луин).[2017.драма.комедия.WEB-DL].[1080p].[MVO.(HDrezka.Studio)]+[Eng].torrent без регистрации
Золото ЗОЛОТАЯ РАЗДАЧА! СКАЧАННОЕ НЕ ЗАСЧИТЫВАЕТСЯ! Золото
Дата: Зарегистрирован   [ Тип: внешний ] Как тут cкачать?
MAGNET ссылка
MAGNET ссылка


Скачать .torrent

18 KB

Статус: проверено DHT
Скачан: торрент - 21 раз, раздача полностью - 17 раз
Размер: 3,49 GB
Оценка:  5 (Голосов: 1)
Поблагодарили: 3
Поделиться ссылкой на эту раздачу с друзьями:
В контактеFacebookОдноклассникиTwitterLivejournalМой МирLiveinternet
 

 
Показать сообщения:    


Вы не можете начинать темы
Вы не можете отвечать на сообщения
Вы не можете редактировать свои сообщения
Вы не можете удалять свои сообщения
Вы не можете голосовать в опросах
Вы не можете прикреплять файлы к сообщениям
Вы можете скачивать файлы