Loading...
Error

Скачать Куколка / Baby Doll (Элиа Казан) [1956, драма, комедия, WEBRip] [1080p] [MVO (Позитив)]+[VO (Владимир Вихров)]+[Sub Eng] торрент без регистрации

Статистика раздачи
Размер:  12,17 GB   |    Скачан:  16 раз
Сидов:  1  [  0 KB/s  ]  
 
 
 
Автор Сообщение

Marsianka

[] 

Жанр: драма, комедия
Год выхода: 1956
Режиссер: Элиа Казан
Актеры: Карл Молден, Кэррол Бейкер, Эли Уоллах, Милдред Даннок, Лонни Чэпмен, Идс Хог, Ной Уильямсон, Р.Дж. Армстронг, Мадлен Шервуд, Рип Торн

Описание:
В основу сценария фильма положены две пьесы Теннесси Уильямса «Двадцать семь тележек с хлопком» и «Несъедобный ужин».
История женщины-ребенка по прозвищу «Куколка», жены разорившегося американского дельца Арчи Мейена, которая становится пешкой в борьбе между её мужем и его конкурентом по бизнесу сицилийцем Сильвой Вакерро.



Производство: США, Newtown Productions
Продолжительность: 01:54:34
Профессиональный многоголосый закадровый + Любительский одноголосый закадровый
Субтитры: Английские
Возраст: 18+ (зрителям, достигшим 18 лет. запрещено для детей)
Рейтинг MPAA: R (лицам до 17 лет обязательно присутствие взрослого)

Качество видео: WEBRip 1080p
Видео: AVC/H.264, 1440x1080, ~14,6 Mbps
Аудио: 1 AC3, 2 ch, 192 kbps - Русский, многоголосый (Позитив)
Аудио: 2 AC3, 2 ch, 160 kbps - Русский, одноголосый (Владимир Вихров)
Аудио: 3 EAC3, 2 ch, 224 kbps - Английский
Оскар, 1957 год
Номинации (4):
Лучшая женская роль (Кэррол Бейкер)
Лучшая женская роль второго плана (Милдред Даннок)
Лучший адаптированный сценарий
Лучшая работа оператора (ч/б фильмы)

Золотой глобус, 1957 год
Победитель (1):
Лучший режиссер ( Элиа Казан )

Номинации (4):
Лучшая женская роль (драма) (Кэррол Бейкер)
Лучшая мужская роль (драма) (Карл Молден)
Лучшая мужская роль второго плана (Илай Уоллак)
Лучшая женская роль второго плана (Милдред Даннок)
Источник: Baby.Doll.1956.1080p.WEBRip.DDP2.0.x264-SbR
Complete name : I:WED-DLBaby.Doll.(1956).1080p.WEBRip.NNMCLUB.mkv
Format : Matroska
Format version : Version 4 / Version 2
File size : 12.2 GiB
Duration : 1 h 54 min
Overall bit rate mode : Variable
Overall bit rate : 15.2 Mb/s
Movie name : Baby Doll.(1956).1080p.WEBRip.NNMCLUB
Encoded date : UTC 2018-01-07 08:03:35
Writing application : mkvmerge v8.3.0 ('Over the Horizon') 64bit
Writing library : libebml v1.3.1 + libmatroska v1.4.2

Video
ID : 1
Format : AVC
Format/Info : Advanced Video Codec
Format profile : High@L4
Format settings : CABAC / 4 Ref Frames
Format settings, CABAC : Yes
Format settings, ReFrames : 4 frames
Codec ID : V_MPEG4/ISO/AVC
Duration : 1 h 54 min
Bit rate mode : Variable
Bit rate : 14.6 Mb/s
Maximum bit rate : 15.0 Mb/s
Width : 1 440 pixels
Height : 1 080 pixels
Display aspect ratio : 4:3
Frame rate mode : Constant
Frame rate : 23.976 (24000/1001) FPS
Color space : YUV
Chroma subsampling : 4:2:0
Bit depth : 8 bits
Scan type : Progressive
Bits/(Pixel*Frame) : 0.392
Stream size : 11.7 GiB (96%)
Title : Baby Doll.(1956).1080p.WEBrip
Writing library : x264 core 148 r2623 d5b2374
Encoding settings : cabac=1 / ref=4 / deblock=1:-1:-1 / analyse=0x3:0x133 / me=umh / subme=9 / psy=1 / psy_rd=1.00:0.15 / mixed_ref=1 / me_range=24 / chroma_me=1 / trellis=2 / 8x8dct=1 / cqm=0 / deadzone=21,11 / fast_pskip=1 / chroma_qp_offset=-3 / threads=34 / lookahead_threads=5 / sliced_threads=0 / nr=150 / decimate=1 / interlaced=0 / bluray_compat=0 / constrained_intra=0 / bframes=8 / b_pyramid=2 / b_adapt=2 / b_bias=0 / direct=3 / weightb=1 / open_gop=0 / weightp=2 / keyint=120 / keyint_min=61 / scenecut=0 / intra_refresh=0 / rc_lookahead=120 / rc=crf / mbtree=1 / crf=18.0 / qcomp=0.60 / qpmin=0 / qpmax=69 / qpstep=4 / vbv_maxrate=15000 / vbv_bufsize=31250 / crf_max=0.0 / nal_hrd=vbr / filler=0 / ip_ratio=1.40 / aq=3:1.00
Language : English
Default : Yes
Forced : No
Color range : Limited
Color primaries : BT.709
Transfer characteristics : BT.709
Matrix coefficients : BT.709

Audio #1
ID : 2
Format : AC-3
Format/Info : Audio Coding 3
Codec ID : A_AC3
Duration : 1 h 54 min
Bit rate mode : Constant
Bit rate : 192 kb/s
Channel(s) : 2 channels
Channel positions : Front: L R
Sampling rate : 48.0 kHz
Frame rate : 31.250 FPS (1536 SPF)
Bit depth : 16 bits
Compression mode : Lossy
Stream size : 157 MiB (1%)
Title : AC3 2.0 @ 192 kbps - MVO, Позитив
Language : Russian
Service kind : Complete Main
Default : Yes
Forced : No

Audio #2
ID : 3
Format : AC-3
Format/Info : Audio Coding 3
Codec ID : A_AC3
Duration : 1 h 54 min
Bit rate mode : Constant
Bit rate : 160 kb/s
Channel(s) : 2 channels
Channel positions : Front: L R
Sampling rate : 48.0 kHz
Frame rate : 31.250 FPS (1536 SPF)
Bit depth : 16 bits
Compression mode : Lossy
Stream size : 131 MiB (1%)
Title : AC3 2.0 @ 160 kbps - VO, Владимир Вихров
Language : Russian
Service kind : Complete Main
Default : No
Forced : No

Audio #3
ID : 4
Format : E-AC-3
Format/Info : Enhanced Audio Coding 3
Codec ID : A_EAC3
Duration : 1 h 54 min
Bit rate mode : Constant
Bit rate : 224 kb/s
Channel(s) : 2 channels
Channel positions : Front: L R
Sampling rate : 48.0 kHz
Frame rate : 187.500 FPS (256 SPF)
Compression mode : Lossy
Stream size : 184 MiB (1%)
Title : E-AC3 2.0 @ 224 kbps - Original
Language : English
Service kind : Complete Main
Default : No
Forced : No

Text
ID : 5
Format : UTF-8
Codec ID : S_TEXT/UTF8
Codec ID/Info : UTF-8 Plain Text
Duration : 1 h 52 min
Bit rate : 67 b/s
Count of elements : 1583
Stream size : 55.5 KiB (0%)
Language : English
Default : No
Forced : No

Menu
00:00:00.000 : en:Credits
00:02:06.544 : en:Agreement Coming Due
00:06:34.544 : en:All Fired Up And All Wet
00:10:31.544 : en:Driving Into Town
00:14:27.544 : en:Preion For Humiliation
00:18:58.544 : en:Furniture Clearance
00:23:03.544 : en:Up In Flames
00:26:46.544 : en:Biblical Justice
00:30:45.544 : en:27 Wagons Full Of Cotton
00:34:03.544 : en:Energy To Burn
00:37:23.544 : en:Playing Chauffeur
00:42:44.544 : en:Principle Of Tit For Tat
00:48:04.544 : en:Getting Familiar
00:53:14.544 : en:Evil Spirits
00:56:50.544 : en:Gin Out Of Join
00:59:29.544 : en:Offer Of Lemonade
01:05:04.544 : en:Haunting The House
01:09:00.544 : en:Playtime
01:11:49.544 : en:Attic Blackmail
01:15:22.544 : en:Nap Time
01:18:48.544 : en:Useless And Destructive
01:23:56.544 : en:Good Neighbor Policy
01:28:02.544 : en:Suddenlt Grown Up
01:32:25.544 : en:Aunt Rose's Future
01:37:40.544 : en:Sorry Situation
01:44:08.544 : en:Trigger Sappy
01:47:36.544 : en:One White Man To Another
01:51:53.544 : en:Celebration Over



Скачать Куколка.Baby.Doll.(Элиа.Казан).[1956.драма.комедия.WEBRip].[1080p].[MVO.(Позитив)]+[VO.(Владимир.Вихров)]+[Sub.Eng].torrent без регистрации
Золото ЗОЛОТАЯ РАЗДАЧА! СКАЧАННОЕ НЕ ЗАСЧИТЫВАЕТСЯ! Золото
Дата: Зарегистрирован   [ Тип: внутренний ] Как тут cкачать?
MAGNET ссылка
MAGNET ссылка


Скачать .torrent

62 KB

Статус: проверено DHT
Скачан: торрент - 16 раз, раздача полностью - 0 раз
Размер: 12,17 GB
Оценка:  - (Голосов: 0)
Поблагодарили: 0
Поделиться ссылкой на эту раздачу с друзьями:
В контактеFacebookОдноклассникиTwitterLivejournalМой МирLiveinternet
 

 
Показать сообщения:    


Вы не можете начинать темы
Вы не можете отвечать на сообщения
Вы не можете редактировать свои сообщения
Вы не можете удалять свои сообщения
Вы не можете голосовать в опросах
Вы не можете прикреплять файлы к сообщениям
Вы можете скачивать файлы