Loading...
Error

Скачать Акты насилия / Acts of Violence (Бретт Доноху) [2018, боевик, драма, WEB-DLRip] [MVO (HDrezka Studio)] торрент без регистрации

Статистика раздачи
Размер:  698 MB   |    Скачан:  58 раз
Сидов:  2  [  0 KB/s  ]  
 
 
 
Автор Сообщение

МихаНЕзатор

[] 

Информация о фильме
Название: Акты насилия
Оригинальное название: Acts of Violence
Год выхода: 2018
Жанр: боевик, драма
Режиссер: Бретт Доноху

В ролях: Брюс Уиллис, Коул Хаузер, Шон Эшмор, Эштон Холмс, Мелисса Болона, Шон Броснан, София Буш, Майк Эппс, Тиффани Броувер, Дженна Б. Келли

О фильме: Чтобы спасти свою невесту, которая попала в лапы торговцев людьми Роман должен вспомнить свои военные навыки и объединить усилия с бывшими сослуживцами и жестким полицейским, расследующим подобные дела.



Страна: Канада, США
Продолжительность: 01:26:46
Перевод: Любительский (многоголосый, закадровый) [HDrezka Studio]
Субтитры: Нет

Файл
Кодек: XviD
Качество: WEB-DLRip
Видео: 720x304 (2.37:1), 23.976 fps, XviD build 73 ~923 kbps avg, 0.18 bit/pixel
Звук: 48 kHz, MPEG Layer 3, 2 ch, ~192.00 kbps avg

АНОНСЫ ПОПУЛЯРНЫХ РАЗДАЧ
General
Complete name : Acts.of.Violence.2018.WEB-DLRip.ot.Portablius.avi
Format : AVI
Format/Info : Audio Video Interleave
File size : 698 MiB
Duration : 1 h 26 min
Overall bit rate : 1 125 kb/s
Writing application : VirtualDubMod 1.5.10.3 | www.virtualdub-fr.org || (build 2550/release)
Writing library : VirtualDubMod build 2550/release

Video
ID : 0
Format : MPEG-4 Visual
Format profile : Advanced Simple@L5
Format settings, BVOP : 1
Format settings, QPel : No
Format settings, GMC : No warppoints
Format settings, Matrix : Custom
Codec ID : XVID
Codec ID/Hint : XviD
Duration : 1 h 26 min
Bit rate : 924 kb/s
Width : 720 pixels
Height : 304 pixels
Display aspect ratio : 2.35:1
Frame rate : 23.976 (24000/1001) FPS
Original frame rate : 23.976 (23976/1000) FPS
Color space : YUV
Chroma subsampling : 4:2:0
Bit depth : 8 bits
Scan type : Progressive
Compression mode : Lossy
Bits/(Pixel*Frame) : 0.176
Stream size : 573 MiB (82%)
Writing library : XviD 73

Audio
ID : 1
Format : MPEG Audio
Format version : Version 1
Format profile : Layer 3
Codec ID : 55
Codec ID/Hint : MP3
Duration : 1 h 26 min
Bit rate mode : Constant
Bit rate : 192 kb/s
Channel(s) : 2 channels
Sampling rate : 48.0 kHz
Compression mode : Lossy
Stream size : 119 MiB (17%)
Alignment : Aligned on interleaves
Interleave, duration : 42 ms (1.00 video frame)
Interleave, preload duratio : 504 ms
Writing library : LAME3.99r
Encoding settings : -m s -V 4 -q 2 -lowpass 18.6 -b 192



Скачать Акты.насилия.Acts.of.Violence.(Бретт.Доноху).[2018.боевик.драма.WEB-DLRip].[MVO.(HDrezka.Studio)].torrent без регистрации
Золото ЗОЛОТАЯ РАЗДАЧА! СКАЧАННОЕ НЕ ЗАСЧИТЫВАЕТСЯ! Золото
Дата: Зарегистрирован   [ Тип: внешний ] Как тут cкачать?
MAGNET ссылка
MAGNET ссылка


Скачать .torrent

15 KB

Статус: проверено DHT
Скачан: торрент - 58 раз, раздача полностью - 57 раз
Размер: 698 MB
Оценка:  - (Голосов: 0)
Поблагодарили: 2
Поделиться ссылкой на эту раздачу с друзьями:
В контактеFacebookОдноклассникиTwitterLivejournalМой МирLiveinternet
 

 
Показать сообщения:    


Вы не можете начинать темы
Вы не можете отвечать на сообщения
Вы не можете редактировать свои сообщения
Вы не можете удалять свои сообщения
Вы не можете голосовать в опросах
Вы не можете прикреплять файлы к сообщениям
Вы можете скачивать файлы