Loading...
Error

Скачать Nat Geo Wild: Дикий Нил / Wild Nile (Харальд Покисер) [2014, документальный, природа, флора, фауна, видовой, HDTV] [1080i] [Dub]+[Eng] торрент без регистрации

Статистика раздачи
Размер:  10,36 GB   |    Скачан:  18 раз
Сидов:  2  [  0 KB/s  ]  
 
 
 
Автор Сообщение

Marsianka

[] 

Информация о фильме
Название: Дикий Нил
Оригинальное Wild Nile
Год выхода: 2014
Жанр: документальный, природа, флора, фауна, видовой
Режиссер: Харальд Покисер

О фильме:
Исток реки находится в области гор Рувензори на территории Уганды. Здесь, в месте, где деревья достигают 10 метров в высоту, среди которых живут редкие птицы, например, алые нектарницы и мерцаюшие бананоеды. Нил проходит через озеро Виктория и превращается в водопады Мерчисон-Фоллс (Кабарега), в окрестностях которых звёзды животного мира Африки — жирафы, слоны и львы — выходят на сцену. Пройдя болото Судд, река медленно, но верно направляется к своей дельте в Средиземноморе через бесконечные пустыни и мимо знаменитых египетских пирамид. Более 80 миллионов людей живут в области дельты Нила, и многие из них зависят от регулярных наводнений. Дикий мир бассейна Нила полон контрастов и разнообразен не менее, чем ландшафты, окружающие реку на её пути. Этот фильм из трёх частей покажет разные лица удивительного Нила.

Страна: США
Продолжительность: 4 x 00:44:00
Перевод: Дублированный

Файл
Кодек: MPEG-4 AVC
Качество: HDTV 1080i
Видео: 1920х1080, 10,5 Мбит/с, 25 кадр/с
Аудио 1: Русский, MP2, 2 канала, 192 Кбит/с
Аудио 2: Английский, MP2, 2 канала, 192 Кбит/с
Общее
Уникальный идентификатор : 183519651983376408358436599074059099856 (0x8A10996CA197C1FA0F7C3E6C63669ED0)
Полное имя : D:КИНОДИКИЙ НИЛЭПИЗОД 01.mkv
Формат : Matroska
Версия формата : Version 2
Размер файла : 3,27 Гбайт
Продолжительность : 44 м. 0 с.
Общий поток : 10,7 Мбит/сек
Программа кодирования : Lavf53.31.100
Библиотека кодирования : Lavf53.31.100

Видео
Идентификатор : 1
Формат : AVC
Формат/Информация : Advanced Video Codec
Профиль формата : High@L4
Настройки формата : CABAC / 4 Ref Frames
Параметр CABAC формата : Да
Параметр RefFrames формата : 4 кадра
Идентификатор кодека : V_MPEG4/ISO/AVC
Продолжительность : 44 м. 0 с.
Битрейт : 10,1 Мбит/сек
Ширина : 1920 пикселей
Высота : 1080 пикселей
Соотношение сторон : 16:9
Режим частоты кадров : Постоянный
Частота кадров : 25,000 кадров/сек
Стандарт вещания : Component
Цветовое пространство : YUV
Субдискретизация насыщенности : 4:2:0
Битовая глубина : 8 бит
Тип развёртки : Чересстрочная
Метод сохранения типа развёртки : Раздельные поля
Порядок развёртки : Верхнее поле первое
Бит/(Пиксели*Кадры) : 0.194
Размер потока : 3,09 Гбайт (94%)
Default : Да
Forced : Нет
Цветовой диапазон : Limited
Основные цвета : BT.709
Характеристики трансфера : BT.709
Коэффициенты матрицы : BT.709

Аудио #1
Идентификатор : 2
Формат : MPEG Audio
Версия формата : Version 1
Профиль формата : Layer 2
Идентификатор кодека : A_MPEG/L2
Идентификатор кодека/Подсказка : MP2
Продолжительность : 44 м. 0 с.
Вид битрейта : Постоянный
Битрейт : 192 Кбит/сек
Каналы : 2 канала
Частота : 48,0 КГц
Метод сжатия : С потерями
Размер потока : 60,4 Мбайт (2%)
Язык : Russian
Default : Да
Forced : Нет

Аудио #2
Идентификатор : 3
Формат : MPEG Audio
Версия формата : Version 1
Профиль формата : Layer 2
Идентификатор кодека : A_MPEG/L2
Идентификатор кодека/Подсказка : MP2
Продолжительность : 44 м. 0 с.
Вид битрейта : Постоянный
Битрейт : 192 Кбит/сек
Каналы : 2 канала
Частота : 48,0 КГц
Метод сжатия : С потерями
Размер потока : 60,4 Мбайт (2%)
Язык : English
Default : Нет
Forced : Нет



Скачать Nat.Geo.Wild.Дикий.Нил.Wild.Nile.(Харальд.Покисер).[2014.документальный.природа.флора.фауна.видовой.HDTV].[1080i].[Dub]+[Eng].torrent без регистрации
Золото ЗОЛОТАЯ РАЗДАЧА! СКАЧАННОЕ НЕ ЗАСЧИТЫВАЕТСЯ! Золото
Дата: Зарегистрирован   [ Тип: внешний ] Как тут cкачать?
MAGNET ссылка
MAGNET ссылка


Скачать .torrent

27 KB

Статус: проверено DHT
Скачан: торрент - 18 раз, раздача полностью - 4 раз
Размер: 10,36 GB
Оценка:  - (Голосов: 0)
Поблагодарили: 1
Поделиться ссылкой на эту раздачу с друзьями:
В контактеFacebookОдноклассникиTwitterLivejournalМой МирLiveinternet
 

 
Показать сообщения:    


Вы не можете начинать темы
Вы не можете отвечать на сообщения
Вы не можете редактировать свои сообщения
Вы не можете удалять свои сообщения
Вы не можете голосовать в опросах
Вы не можете прикреплять файлы к сообщениям
Вы можете скачивать файлы