Loading...
Error

Скачать Бассейн / La piscine (Жак Дере) [1969, драма, мелодрама, криминал, BDRip] [1080p] [Dub]+[French]+[Sub Rus, Eng]x2 торрент без регистрации

Статистика раздачи
Размер:  10,53 GB   |    Скачан:  16 раз
Сидов:  1  [  0 KB/s  ]  
 
 
 
Автор Сообщение

Marsianka

[] 

Информация о фильме
Название: Бассейн
Оригинальное название: La piscine
Год выхода: 1969
Жанр: драма, мелодрама, криминал
Режиссер: Жак Дере
В ролях: Ален Делон, Роми Шнайдер, Морис Роне, Джейн Биркин, Поль Кроше, Стив Экхардт, Мэддли Бейми, Сюзи Жаспар, Тьерри Шабер, Стефани Фуген

О фильме:
Жан-Поль и Марианна проводят отпуск на Лазурном берегу, в идеальной атмосфере на вилле друзей. Но летняя идиллия прерывается вторжением их друга, бывшего любовника Марианны.
Безмятежное состояние героев сменяется обжигающим напряжением, затаенной ревностью, гнетущими намеками и страстями…



Страна: Италия, Франция
Продолжительность: 02:02:23
Перевод: Профессиональный (дублированный) Советский Дубляж, Мосфильм

Файл
Формат: MKV
Видео: 1764x1080 at 24.000 fps, x264@L4.1, ~11641 kbps avg
Aудио#1: Russian: 48 kHz, AC3, 3/2 (L,C,R,l,r) + LFE ch, ~448.00 kbps avg
Aудио#2: French: 48 kHz, AC3, 2/0 (L,R) ch, ~224.00 kbps avg
Субтитры: английские, русские
General
Unique ID : 247314466343884547401642457943408924023 (0xBA0F089CB5679110B647A293AB885577)
Complete name : La.piscine.1969.1080p.BluRay.x264-iOZO.Rus.Fr.mkv
Format : Matroska
Format version : Version 2
File size : 10.5 GiB
Duration : 2 h 2 min
Overall bit rate : 12.3 Mb/s
Encoded date : UTC 2009-09-11 17:11:54
Writing application : mkvmerge v2.9.5 ('Tu es le seul') built on Jun 7 2009 11:07:07
Writing library : libebml v0.7.7 + libmatroska v0.8.1

Video
ID : 1
Format : AVC
Format/Info : Advanced Video Codec
Format profile : High@L4.1
Format settings : CABAC / 4 Ref Frames
Format settings, CABAC : Yes
Format settings, RefFrames : 4 frames
Codec ID : V_MPEG4/ISO/AVC
Duration : 2 h 2 min
Bit rate : 11.6 Mb/s
Width : 1 764 pixels
Height : 1 080 pixels
Display aspect ratio : 16:10
Frame rate mode : Constant
Frame rate : 24.000 FPS
Color space : YUV
Chroma subsampling : 4:2:0
Bit depth : 8 bits
Scan type : Progressive
Bits/(Pixel*Frame) : 0.255
Stream size : 9.74 GiB (93%)
Writing library : x264 core 75 r1247M b3efbe5
Encoding settings : cabac=1 / ref=4 / deblock=1:-3:-3 / analyse=0x3:0x113 / me=umh / subme=9 / psy=1 / psy_rd=1.0:0.0 / mixed_ref=1 / me_range=24 / chroma_me=1 / trellis=1 / 8x8dct=1 / cqm=0 / deadzone=21,11 / chroma_qp_offset=-2 / threads=6 / nr=0 / decimate=1 / mbaff=0 / bframes=3 / b_pyramid=0 / b_adapt=2 / b_bias=0 / direct=3 / wpredb=1 / keyint=250 / keyint_min=25 / scenecut=40 / rc_lookahead=60 / rc=2pass / mbtree=1 / bitrate=11641 / ratetol=1.0 / qcomp=0.60 / qpmin=10 / qpmax=51 / qpstep=4 / cplxblur=20.0 / qblur=0.5 / vbv_maxrate=50000 / vbv_bufsize=50000 / ip_ratio=1.40 / aq=1:1.00
Language : French
Default : Yes
Forced : No

Audio #1
ID : 2
Format : AC-3
Format/Info : Audio Coding 3
Format settings, Endianness : Big
Codec ID : A_AC3
Duration : 2 h 2 min
Bit rate mode : Constant
Bit rate : 448 kb/s
Channel(s) : 6 channels
Channel positions : Front: L C R, Side: L R, LFE
Sampling rate : 48.0 kHz
Frame rate : 31.250 FPS (1536 SPF)
Bit depth : 16 bits
Compression mode : Lossy
Stream size : 392 MiB (4%)
Title : Russian (DUB)
Language : Russian
Service kind : Complete Main
Default : Yes
Forced : No

Audio #2
ID : 3
Format : AC-3
Format/Info : Audio Coding 3
Format settings, Endianness : Big
Codec ID : A_AC3
Duration : 2 h 2 min
Bit rate mode : Constant
Bit rate : 224 kb/s
Channel(s) : 2 channels
Channel positions : Front: L R
Sampling rate : 48.0 kHz
Frame rate : 31.250 FPS (1536 SPF)
Bit depth : 16 bits
Compression mode : Lossy
Stream size : 196 MiB (2%)
Title : French
Language : French
Service kind : Complete Main
Default : No
Forced : No

Text #1
ID : 4
Format : UTF-8
Codec ID : S_TEXT/UTF8
Codec ID/Info : UTF-8 Plain Text
Language : English
Default : Yes
Forced : No

Text #2
ID : 5
Format : UTF-8
Codec ID : S_TEXT/UTF8
Codec ID/Info : UTF-8 Plain Text
Language : Russian
Default : No
Forced : No

Menu
00:00:00.000 : en:00:00:00.000
00:09:09.667 : en:00:09:09.667
00:19:30.417 : en:00:19:30.417
00:28:24.125 : en:00:28:24.125
00:36:32.875 : en:00:36:32.875
00:47:29.458 : en:00:47:29.458
00:55:23.542 : en:00:55:23.542
01:05:27.750 : en:01:05:27.750
01:13:59.792 : en:01:13:59.792
01:26:03.833 : en:01:26:03.833
01:39:58.375 : en:01:39:58.375
01:49:55.917 : en:01:49:55.917
Релиз от:



Скачать Бассейн.La.piscine.(Жак.Дере).[1969.драма.мелодрама.криминал.BDRip].[1080p].[Dub]+[French]+[Sub.Rus.Eng]x2.torrent без регистрации
Золото ЗОЛОТАЯ РАЗДАЧА! СКАЧАННОЕ НЕ ЗАСЧИТЫВАЕТСЯ! Золото
Дата: Зарегистрирован   [ Тип: внутренний ] Как тут cкачать?
MAGNET ссылка
MAGNET ссылка


Скачать .torrent

54 KB

Статус: проверено DHT
Скачан: торрент - 16 раз, раздача полностью - 1 раз
Размер: 10,53 GB
Оценка:  - (Голосов: 0)
Поблагодарили: 0
Поделиться ссылкой на эту раздачу с друзьями:
В контактеFacebookОдноклассникиTwitterLivejournalМой МирLiveinternet
 

 
Показать сообщения:    


Вы не можете начинать темы
Вы не можете отвечать на сообщения
Вы не можете редактировать свои сообщения
Вы не можете удалять свои сообщения
Вы не можете голосовать в опросах
Вы не можете прикреплять файлы к сообщениям
Вы можете скачивать файлы