Loading...
Error

Скачать Сирена – Новая Легенда / Legend of Siren: Erotic Ghost / Shin yojo densetsu: seiren (Сатоси Торао) [2004, триллер, мелодрама, DVDRip] [VO]+[ja.] торрент без регистрации

Статистика раздачи
Размер:  1,37 GB   |    Скачан:  10 раз
Сидов:  1  [  0 KB/s  ]  
 
 
 
Автор Сообщение

Marsianka

[] 

Название: Сирена – Новая Легенда
Оригинальное название: Shin yojo densetsu: seiren
Год выхода: 2004
Жанр: триллер, мелодрама
Режиссер: Сатоси Торао
Актеры: Сола Аои, Хидеаки Мидзуки, Икки Фунаки, Юничи Кавамото, Кадзуеси Одзава...

О фильме: Пятеро приятелей ограбили банк. Ограбление прошло гладко, никто не видел их лиц, и они, радостные, едут в зарание приготовленное укрытие, размышляя, куда будут девать такую кучу денег. Девушка Юми, которую друзья принимают за рассыльную из магазина, становится свидетелем того, что грабители везут деньги и оружие. Принято решение похитить её. Оставалось 48 часов до того, как они покинут страну. Парни начали умирать неестественной смертью после того, как контактировали с Юми. В чем же сила этой девушки?


Страна: Япония
Студия: Take Shobo Co. Ltd.
Продолжительность: 01:17:16
Перевод: Любительский (одноголосый)
Субтитры: Отсутствуют

Файл:
Кодек: XviD
Видео: 592x304 (1.947:1), ~2095 kbps (0.398 bpp) 29.970 fps
Аудио №1: ru, ac3, 192000 cbr, 48000 kHz, 2 ch
Аудио №2: ja, ac3, 192000 cbr, 48000 kHz, 2 ch

Формат : AVI
Формат/Информация : Audio Video Interleave
Размер файла : 1,37 Гбайт
Продолжительность : 1 ч. 17 м.
Общий поток : 2547 Кбит/сек
Программа кодирования : VirtualDubMod 1.5.4.1 (build 2178/release)
Библиотека кодирования : VirtualDubMod build 2178/release

Видео
Идентификатор : 0
Формат : MPEG-4 Visual
Профиль формата : Advanced Simple@L5
Параметр BVOP формата : 2
Параметр QPel формата : Нет
Параметр GMC формата : 3 точки перехода
Параметр матрицы формата : Default (MPEG)
Режим смешивания : Сжатый битовый поток
Идентификатор кодека : XVID
Идентификатор кодека/Подсказка : XviD
Продолжительность : 1 ч. 17 м.
Битрейт : 2145 Кбит/сек
Ширина : 592 пикселя
Высота : 304 пикселя
Соотношение сторон : 1,947
Частота кадров : 29,970 (29970/1000) кадров/сек
Цветовое пространство : YUV
Субдискретизация насыщенности : 4:2:0
Битовая глубина : 8 бит
Тип развёртки : Прогрессивная
Метод сжатия : С потерями
Бит/(Пиксели*Кадры) : 0.398
Размер потока : 1,16 Гбайт (84%)
Библиотека кодирования : XviD 1.2.1 (UTC 2008-12-04)

Аудио #1
Идентификатор : 1
Формат : AC-3
Формат/Информация : Audio Coding 3
Расширение режима : CM (complete main)
Параметр Endianness формата : Big
Идентификатор кодека : 2000
Продолжительность : 1 ч. 17 м.
Вид битрейта : Постоянный
Битрейт : 192 Кбит/сек
Каналы : 2 канала
Расположение каналов : Front: L R
Частота : 48,0 КГц
Частота кадров : 31,250 кадров/сек (1536 spf)
Метод сжатия : С потерями
Размер потока : 106 Мбайт (8%)
Выравнивание : Соединение по промежуткам
Продолжительность промежутка : 33 мс. (1,00 видеокадр)
Время предзагрузки промежутка : 512 мс.
Язык : Russian

Аудио #2
Идентификатор : 2
Формат : AC-3
Формат/Информация : Audio Coding 3
Расширение режима : CM (complete main)
Параметр Endianness формата : Big
Идентификатор кодека : 2000
Продолжительность : 1 ч. 17 м.
Вид битрейта : Постоянный
Битрейт : 192 Кбит/сек
Каналы : 2 канала
Расположение каналов : Front: L R
Частота : 48,0 КГц
Частота кадров : 31,250 кадров/сек (1536 spf)
Метод сжатия : С потерями
Размер потока : 106 Мбайт (8%)
Выравнивание : Разделение по промежуткам
Продолжительность промежутка : 33 мс. (1,00 видеокадр)
Время предзагрузки промежутка : 500 мс.
Язык : Japanese



Скачать Сирена.–.Новая.Легенда.Legend.of.Siren.Erotic.Ghost.Shin.yojo.densetsu.seiren.(Сатоси.Торао).[2004.триллер.мелодрама.DVDRip].[VO]+[ja.].torrent без регистрации
Золото ЗОЛОТАЯ РАЗДАЧА! СКАЧАННОЕ НЕ ЗАСЧИТЫВАЕТСЯ! Золото
Дата: Зарегистрирован   [ Тип: внутренний ] Как тут cкачать?
MAGNET ссылка
MAGNET ссылка


Скачать .torrent

15 KB

Статус: проверено DHT
Скачан: торрент - 10 раз, раздача полностью - 3 раз
Размер: 1,37 GB
Оценка:  - (Голосов: 0)
Поблагодарили: 0
Поделиться ссылкой на эту раздачу с друзьями:
В контактеFacebookОдноклассникиTwitterLivejournalМой МирLiveinternet
 

 
Показать сообщения:    


Вы не можете начинать темы
Вы не можете отвечать на сообщения
Вы не можете редактировать свои сообщения
Вы не можете удалять свои сообщения
Вы не можете голосовать в опросах
Вы не можете прикреплять файлы к сообщениям
Вы можете скачивать файлы