Loading...
Error

Скачать Инопланетянин / E.T. the Extra-Terrestrial (Стивен Спилберг) [1982, фантастика, фэнтези, драма, приключения, семейный, UHD BDRemux] [2160p] [4K] [HDR] [Dub]+[MVO]x4+[AVO]x2+[Eng]+[Sub Rus, Eng]x2 торрент без регистрации

Статистика раздачи
Размер:  61,93 GB   |    Скачан:  19 раз
Сидов:  1  [  0 KB/s  ]  
 
 
 
Автор Сообщение

Marsianka

[] 

Информация о фильме
Название: Инопланетянин
Оригинальное название: E.T. the Extra-Terrestrial
Год выхода: 1982
Жанр: фантастика, фэнтези, драма, приключения, семейный
Режиссер: Стивен Спилберг
В ролях: Генри Томас, Дрю Бэрримор, Ди Уоллес-Стоун, Роберт МакНотон, Питер Койот, К. Ч. Мартел, Шон Фрай, С. Томас Хауэлл, Дэвид М. О’Делл, Ричард Свинглер, Фрэнк Тот, Роберт Бартон, Майкл Дэррел, Дэвид Берксон, Сьюзен Кэмерон, Дэвид Карлберг, Эрика Элениак, Уилл Фоулер мл., Барбара Хартнет, Милт Коган, Александр Лэмпон, Дайан Лэмпон, Рода Макофф, Роберт Мерфи, Ричард Песавенто, Том Шерри, Мэри Стейн, Митчел Сускин, Тед Гроссман, Энн Локхарт, Пэт Уэлш, Дебра Уингер

О фильме:
Инопланетянин, телом похожий на черепаху без панциря, а мордочкой одновременно на мопса и Альберта Эйнштейна, прилетел на землю с мирными намерениями — в составе научно-исследовательской группы. Специалисты из NASA заметили приближение летающей тарелки и посчитали, что просто обязаны отловить хотя бы одну из инопланетных тварей. Несчастные существа были вынуждены ретироваться настолько спешно, что забыли захватить одного из коллег. Земной мальчик Эллиот, а также его брат и сестра, которую играет семилетняя Дрю Бэрримор, преодолевая отвращение к неприятно выглядящей твари, спасают ее.



Страна: США
Студия: Amblin Entertainment, Universal Pictures
Продолжительность: 01:54:35
Перевод: Дублированный, профессиональный многоголосый, авторский

Файл
Кодек: H.265
Качество: UHD BDRemux 2160p
Видео: MPEG-H HEVC HDR, 54.0 Mбит/с, 3840x2160, 23.976 кадр/с

1. Русский (DTS, 6 ch, 768 Кбит/с) / дублированный (Blu-ray EUR)
2. Русский (AC3, 6 ch, 448 Кбит/с) / Многоголосый закадровый (ОРТ)
3. Русский (AC3, 2 ch, 192 Кбит/с) / Многоголосый закадровый (НТВ)
4. Русский (DTS-HD MA, 8 ch, 5186 Кбит/с) / Авторский (А.Михалев)
5. Русский (DTS-HD MA, 8 ch, 5192 Кбит/с) / Авторский (Ю.Живов)
6. Русский (AC3, 2 ch, 192 Кбит/с) / Авторский (А.Дольский)
7. Украинский (AC3, 6 ch, 384 Кбит/с) / Многоголосый закадровый (1+1)
7. Украинский (DTS-HD MA, 8 ch, 5193 Кбит/с) / Многоголосый закадровый (Новий канал)
8. Английский (DTS:X/DTS-HD MA, 8 ch, 5910 Кбит/с)
Субтитры: Русские, английские
Семпл
General
Unique ID : 250085511751532639211492821789350847563 (0xBC24B7B2ED762B65EB53B8CF00A0644B)
Complete name : D:uTorrentInoplanetjanin.1982.2160p.HEVC.UHD.HDR.MediaClub.mkv
Format : Matroska
Format version : Version 4 / Version 2
File size : 61.9 GiB
Duration : 1 h 54 min
Overall bit rate : 77.4 Mb/s
Encoded date : UTC 2018-02-07 23:45:35
Writing application : mkvmerge v19.0.0 ('Brave Captain') 64-bit
Writing library : libebml v1.3.5 + libmatroska v1.4.8
Cover : Yes
Attachments : cover.jpg

Video
ID : 1
Format : HEVC
Format/Info : High Efficiency Video Coding
Format profile : Main 10@L5.1@High
Codec ID : V_MPEGH/ISO/HEVC
Duration : 1 h 54 min
Bit rate : 54.0 Mb/s
Width : 3 840 pixels
Height : 2 160 pixels
Display aspect ratio : 16:9
Frame rate mode : Constant
Frame rate : 23.976 (24000/1001) FPS
Color space : YUV
Chroma subsampling : 4:2:0 (Type 2)
Bit depth : 10 bits
Bits/(Pixel*Frame) : 0.271
Stream size : 43.1 GiB (70%)
Title : BDRemux, 20160p, HEVC, UDH, HDR by Silverok
Writing library : ATEME Titan File 3.8.3 (4.8.3.0)
Default : Yes
Forced : No
Color range : Limited
Color primaries : BT.2020
Transfer characteristics : PQ
Matrix coefficients : BT.2020 non-constant
Mastering display color primaries : Display P3
Mastering display luminance : min: 0.0050 cd/m2, max: 1000 cd/m2
Maximum Content Light Level : 1000 cd/m2
Maximum Frame-Average Light Level : 148 cd/m2

Audio #1
ID : 2
Format : DTS
Format/Info : Digital Theater Systems
Codec ID : A_DTS
Duration : 1 h 54 min
Bit rate mode : Constant
Bit rate : 768 kb/s
Channel(s) : 6 channels
Channel positions : Front: L C R, Side: L R, LFE
Sampling rate : 48.0 kHz
Frame rate : 93.750 FPS (512 SPF)
Bit depth : 24 bits
Compression mode : Lossy
Stream size : 629 MiB (1%)
Title : Дубляж (Blu-ray EUR)
Language : Russian
Default : Yes
Forced : No

Audio #2
ID : 3
Format : AC-3
Format/Info : Audio Coding 3
Codec ID : A_AC3
Duration : 1 h 54 min
Bit rate mode : Constant
Bit rate : 448 kb/s
Channel(s) : 6 channels
Channel positions : Front: L C R, Side: L R, LFE
Sampling rate : 48.0 kHz
Frame rate : 31.250 FPS (1536 SPF)
Bit depth : 16 bits
Compression mode : Lossy
Stream size : 367 MiB (1%)
Title : Многоголосый закадровый (ОРТ)
Language : Russian
Service kind : Complete Main
Default : No
Forced : No

Audio #3
ID : 4
Format : AC-3
Format/Info : Audio Coding 3
Codec ID : A_AC3
Duration : 1 h 54 min
Bit rate mode : Constant
Bit rate : 192 kb/s
Channel(s) : 2 channels
Channel positions : Front: L R
Sampling rate : 48.0 kHz
Frame rate : 31.250 FPS (1536 SPF)
Bit depth : 16 bits
Compression mode : Lossy
Stream size : 157 MiB (0%)
Title : Многоголосый закадровый (НТВ)
Language : Russian
Service kind : Complete Main
Default : No
Forced : No

Audio #4
ID : 5
Format : DTS
Format/Info : Digital Theater Systems
Format profile : MA / Core
Codec ID : A_DTS
Duration : 1 h 54 min
Bit rate mode : Variable / Constant
Bit rate : 5 186 kb/s / 1 509 kb/s
Channel(s) : 8 channels / 6 channels
Channel positions : Front: L C R, Side: L R, Back: L R, LFE / Front: L C R, Side: L R, LFE
Sampling rate : 48.0 kHz
Frame rate : 93.750 FPS (512 SPF)
Bit depth : 24 bits
Compression mode : Lossless / Lossy
Stream size : 4.15 GiB (7%)
Title : Авторский (А.Михалев)
Language : Russian
Default : No
Forced : No

Audio #5
ID : 6
Format : DTS
Format/Info : Digital Theater Systems
Format profile : MA / Core
Codec ID : A_DTS
Duration : 1 h 54 min
Bit rate mode : Variable / Constant
Bit rate : 5 192 kb/s / 1 509 kb/s
Channel(s) : 8 channels / 6 channels
Channel positions : Front: L C R, Side: L R, Back: L R, LFE / Front: L C R, Side: L R, LFE
Sampling rate : 48.0 kHz
Frame rate : 93.750 FPS (512 SPF)
Bit depth : 24 bits
Compression mode : Lossless / Lossy
Stream size : 4.16 GiB (7%)
Title : Авторский (Ю.Живов)
Language : Russian
Default : No
Forced : No

Audio #6
ID : 7
Format : AC-3
Format/Info : Audio Coding 3
Codec ID : A_AC3
Duration : 1 h 54 min
Bit rate mode : Constant
Bit rate : 192 kb/s
Channel(s) : 2 channels
Channel positions : Front: L R
Sampling rate : 48.0 kHz
Frame rate : 31.250 FPS (1536 SPF)
Bit depth : 16 bits
Compression mode : Lossy
Stream size : 157 MiB (0%)
Title : Авторский (А.Дольский)
Language : Russian
Service kind : Complete Main
Default : No
Forced : No

Audio #7
ID : 8
Format : AC-3
Format/Info : Audio Coding 3
Codec ID : A_AC3
Duration : 1 h 54 min
Bit rate mode : Constant
Bit rate : 384 kb/s
Channel(s) : 6 channels
Channel positions : Front: L C R, Side: L R, LFE
Sampling rate : 48.0 kHz
Frame rate : 31.250 FPS (1536 SPF)
Bit depth : 16 bits
Compression mode : Lossy
Stream size : 315 MiB (0%)
Title : Многоголосый закадровый (1+1)
Language : Ukrainian
Service kind : Complete Main
Default : No
Forced : No

Audio #8
ID : 9
Format : DTS
Format/Info : Digital Theater Systems
Format profile : MA / Core
Codec ID : A_DTS
Duration : 1 h 54 min
Bit rate mode : Variable / Constant
Bit rate : 5 193 kb/s / 1 509 kb/s
Channel(s) : 8 channels / 6 channels
Channel positions : Front: L C R, Side: L R, Back: L R, LFE / Front: L C R, Side: L R, LFE
Sampling rate : 48.0 kHz
Frame rate : 93.750 FPS (512 SPF)
Bit depth : 24 bits
Compression mode : Lossless / Lossy
Stream size : 4.16 GiB (7%)
Title : Многоголосый закадровый (Новий канал)
Language : Ukrainian
Default : No
Forced : No

Audio #9
ID : 10
Format : DTS
Format/Info : Digital Theater Systems
Format profile : X / MA / Core
Codec ID : A_DTS
Duration : 1 h 54 min
Bit rate mode : Variable / Variable / Constant
Bit rate : 5 910 kb/s / 5 910 kb/s / 1 509 kb/s
Channel(s) : Object Based / 8 channels / 6 channels
Channel positions : Object Based / Front: L C R, Side: L R, Back: L R, LFE / Front: L C R, Side: L R, LFE
Sampling rate : / 48.0 kHz / 48.0 kHz
Frame rate : 93.750 FPS (512 SPF)
Bit depth : / 24 bits / 24 bits
Compression mode : / Lossless / Lossy
Stream size : 4.73 GiB (8%)
Language : English
Default : No
Forced : No

Text #1
ID : 11
Format : UTF-8
Codec ID : S_TEXT/UTF8
Codec ID/Info : UTF-8 Plain Text
Duration : 1 h 48 min
Bit rate : 46 b/s
Count of elements : 914
Stream size : 36.7 KiB (0%)
Language : Russian
Default : Yes
Forced : No

Text #2
ID : 12
Format : UTF-8
Codec ID : S_TEXT/UTF8
Codec ID/Info : UTF-8 Plain Text
Duration : 1 h 47 min
Bit rate : 40 b/s
Count of elements : 1185
Stream size : 32.0 KiB (0%)
Language : English
Default : No
Forced : No

Menu
00:00:00.000 : en:
00:05:00.000 : en:
00:10:00.000 : en:
00:15:00.000 : en:
00:20:00.000 : en:
00:25:00.000 : en:
00:30:00.000 : en:
00:35:00.000 : en:
00:40:00.000 : en:
00:45:00.000 : en:
00:50:00.000 : en:
00:55:00.000 : en:
01:00:00.000 : en:
01:05:00.000 : en:
01:10:00.000 : en:
01:15:00.000 : en:
01:20:00.000 : en:
01:25:00.000 : en:
01:30:00.000 : en:
01:35:00.000 : en:
01:40:00.000 : en:
01:45:00.000 : en:
01:50:00.000 : en:
Релиз от: | Silverok



Скачать Инопланетянин.E.T.the.Extra-Terrestrial.(Стивен.Спилберг).[1982.фантастика.фэнтези.драма.приключения.семейный.UHD.BDRemux].[2160p].[4K].[HDR].[Dub]+[MVO]x4+[AVO]x2+[Eng]+[Sub.Rus.Eng]x2.torrent без регистрации
Золото ЗОЛОТАЯ РАЗДАЧА! СКАЧАННОЕ НЕ ЗАСЧИТЫВАЕТСЯ! Золото
Дата: Зарегистрирован   [ Тип: внутренний ] Как тут cкачать?
MAGNET ссылка
MAGNET ссылка


Скачать .torrent

156 KB

Статус: проверено DHT
Скачан: торрент - 19 раз, раздача полностью - 1 раз
Размер: 61,93 GB
Оценка:  - (Голосов: 0)
Поблагодарили: 1
Поделиться ссылкой на эту раздачу с друзьями:
В контактеFacebookОдноклассникиTwitterLivejournalМой МирLiveinternet
 

 
Показать сообщения:    


Вы не можете начинать темы
Вы не можете отвечать на сообщения
Вы не можете редактировать свои сообщения
Вы не можете удалять свои сообщения
Вы не можете голосовать в опросах
Вы не можете прикреплять файлы к сообщениям
Вы можете скачивать файлы