Loading...
Error

Скачать Восставший из ада: Приговор / Hellraiser: Judgment (Гэри Дж. Танниклифф) [2018, ужасы, DVDRip] [DVO (HiWay Grope)] торрент без регистрации

Статистика раздачи
Размер:  1,39 GB   |    Скачан:  252 раза
Сидов:  2  [  0 KB/s  ]  
 
 
 
Автор Сообщение

МихаНЕзатор

[] 

Информация о фильме
Название: Восставший из ада: Приговор
Оригинальное название: Hellraiser: Judgment
Год выхода: 2018
Жанр: ужасы
Режиссер: Гэри Дж. Танниклифф

В ролях: Рэнди Уэйн, Хэзер Лэнгенкэмп, Риган Уоллес, Алексис Харрис, Джон Гулагер, Пол Т. Тейлор, Майк Дж. Риган, Дэймон Карни, Молли Никки Андерсон, Мэри Кэтрин Брайант и другие

О фильме: Детективы Шон и Дэвид Картеры расследует дело о жутких серийных убийствах. Объединив усилия с другим детективом, Кристин Эджертон, они следуют за убийцей всё дальше и дальше в лабиринт ужаса, которому нет места в мире живых. Чем глубже они опускаются по спирали в преисподнюю, тем явственнее понимают, что они клюнули не на ту наживку. Похоже, сенобиты ждут вовсе не жертв маньяка.



Релиз от: HiWay Grope

Страна: США, Dimension Films
Продолжительность: 01:21:40
Перевод: Любительский (двухголосый закадровый) | HiWay Grope

Файл
Кодек: XviD
Качество: DVDRip
Видео: 720x400, 24 fps, ~2045 kbps avg, 0.30 bit/pixel
Звук:
Аудио rus: AC3, 48 kHz, 6 ch, 384 Kbps
Субтитры: отсутствуют

АНОНСЫ ПОПУЛЯРНЫХ РАЗДАЧ

General
Complete name : E:Hellraiser.Judgment.2018.DVDRip.HiWayGropeHellraiser.Judgment.2018.DVDRip.HiWayGrope.avi
Format : AVI
Format/Info : Audio Video Interleave
File size : 1.39 GiB
Duration : 1h 21mn
Overall bit rate : 2 439 Kbps
Writing application : VirtualDubMod 1.5.10.3 (build 2550/release)
Writing library : VirtualDubMod build 2550/release

Video
ID : 0
Format : MPEG-4 Visual
Format profile : Advanced Simple@L5
Format settings, BVOP : 1
Format settings, QPel : No
Format settings, GMC : No warppoints
Format settings, Matrix : Default (MPEG)
Codec ID : XVID
Codec ID/Hint : XviD
Duration : 1h 21mn
Bit rate : 2 045 Kbps
Width : 720 pixels
Height : 400 pixels
Display aspect ratio : 16:9
Frame rate : 23.976 (23976/1000) fps
Color space : YUV
Chroma subsampling : 4:2:0
Bit depth : 8 bits
Scan type : Progressive
Compression mode : Lossy
Bits/(Pixel*Frame) : 0.296
Stream size : 1.17 GiB (84%)
Writing library : XviD 73

Audio
ID : 1
Format : AC-3
Format/Info : Audio Coding 3
Mode extension : CM (complete main)
Format settings, Endianness : Big
Codec ID : 2000
Duration : 1h 21mn
Bit rate mode : Constant
Bit rate : 384 Kbps
Channel(s) : 6 channels
Channel positions : Front: L C R, Side: L R, LFE
Sampling rate : 48.0 KHz
Frame rate : 31.250 fps (1536 spf)
Compression mode : Lossy
Stream size : 224 MiB (16%)
Alignment : Split accross interleaves
Interleave, duration : 42 ms (1.00 video frame)
Interleave, preload duration : 500 ms



Скачать Восставший.из.ада.Приговор.Hellraiser.Judgment.(Гэри.Дж.Танниклифф).[2018.ужасы.DVDRip].[DVO.(HiWay.Grope)].torrent без регистрации
Золото ЗОЛОТАЯ РАЗДАЧА! СКАЧАННОЕ НЕ ЗАСЧИТЫВАЕТСЯ! Золото
Дата: Зарегистрирован   [ Тип: внутренний ] Как тут cкачать?
MAGNET ссылка
MAGNET ссылка


Скачать .torrent

15 KB

Статус: проверено DHT
Скачан: торрент - 252 раз, раздача полностью - 425 раз
Размер: 1,39 GB
Оценка:  5 (Голосов: 3)
Поблагодарили: 16
Поделиться ссылкой на эту раздачу с друзьями:
В контактеFacebookОдноклассникиTwitterLivejournalМой МирLiveinternet
 

 

T3000

[] 

Фильм мягко говоря отстой, это даже не ужасы, это какой то полицейский детектив с элементами триллера at
 
Показать сообщения:    


Вы не можете начинать темы
Вы не можете отвечать на сообщения
Вы не можете редактировать свои сообщения
Вы не можете удалять свои сообщения
Вы не можете голосовать в опросах
Вы не можете прикреплять файлы к сообщениям
Вы можете скачивать файлы