Loading...
Error

Скачать Первый день мира (Яков Сегель) [1959, военный, драма, SATRip-AVC] торрент без регистрации

Статистика раздачи
Размер:  1,46 GB   |    Скачан:  9 раз
Сидов:  9  [  0 KB/s  ]   Личеров:  1  [  0 KB/s  ]  
 
 
 
Автор Сообщение

Marsianka

[] 

Страна: СССР
Производство: киностудия им. М. Горького

Жанр: военный, драма
Год выпуска: 1959
Продолжительность: 01:31:46

Перевод: Не требуется
Cубтитры: нет
Оригинальная аудиодорожка: русский

Режиссер: Яков Сегель

В ролях:
Валериан Виноградов, Людмила Бутенина, Аркадий Вовси, Гарри Дунц, Люсьена Овчинникова, Пётр Щербаков, Игорь Пушкарёв, Андрей Файт, Нина Меньшикова, Вадим Захарченко, Эрвин Кнаусмюллер, Хайнц Браун, Юрий Фомичёв, Алексей Темерин...
Об актёрах подробней

Описание:
Фильм снят Яковом Сегелем, который до войны был героем всех мальчишек - юнгой из «Детей капитана Гранта», а потом стал героем по-настоящему, пройдя всю войну солдатом.
Картина о советском солдате Михаиле Платонове, погибшем в небольшом немецком городке в первые мирные дни 1945 года. Ожидание любви и мирной жизни объединяет всех, прошедших жестокую войну. Но адская машина ненависти не может остановиться сразу – и Михаил умирает накануне рассвета мира. Несбывшаяся любовь, несбывшиеся мечты...

Исходник: DVB
Качество видео: SATRip-AVC
Формат видео: MKV

Видео: 716->767х576 (4:3), 25 fps, H264 ~ 1890 kbps avg, 0.183 bit/pixel
Аудио: 48 kHz, Dolby Digital AC3 2.0, 192 kbps Русский
Аудио: 48 kHz, Dolby Digital AC3 2.0, 192 kbps Немецкий

Раздача от:

Общее
Полное имя : Pervyy.den.mira.1959.SATRip-AVC_[New-team]_by_AVP_Studio.mkv
Формат : Matroska
Версия формата : Version 4 / Version 2
Размер файла : 1,46 Гбайт
Продолжительность : 1 ч. 31 м.
Общий поток : 2276 Кбит/сек
Название фильма : Первый день мира AVP Studio
Дата кодирования : UTC 2018-02-05 09:06:13
Программа кодирования : mkvmerge v17.0.0 ('Be Ur Friend') 64-bit
Библиотека кодирования : libebml v1.3.5 + libmatroska v1.4.8

Видео
Идентификатор : 1
Формат : AVC
Формат/Информация : Advanced Video Codec
Профиль формата : High@L4.1
Настройки формата : CABAC / 10 Ref Frames
Параметр CABAC формата : Да
Параметр RefFrames формата : 10 кадров
Идентификатор кодека : V_MPEG4/ISO/AVC
Продолжительность : 1 ч. 31 м.
Битрейт : 1890 Кбит/сек
Ширина : 716 пикселей
Высота : 576 пикселей
Соотношение сторон : 4:3
Режим частоты кадров : Постоянный
Частота кадров : 25,000 кадров/сек
Цветовое пространство : YUV
Субдискретизация насыщенности : 4:2:0
Битовая глубина : 8 бит
Тип развёртки : Прогрессивная
Бит/(Пиксели*Кадры) : 0.183
Размер потока : 1,21 Гбайт (83%)
Заголовок : SATRip-AVC
Библиотека кодирования : x264 core 130 r2273 b3065e6
Настройки программы : cabac=1 / ref=10 / deblock=1:-2:-1 / analyse=0x3:0x113 / me=umh / subme=10 / psy=1 / psy_rd=1.00:0.00 / mixed_ref=1 / me_range=32 / chroma_me=1 / trellis=2 / 8x8dct=1 / cqm=0 / deadzone=21,11 / fast_pskip=1 / chroma_qp_offset=-2 / threads=6 / lookahead_threads=1 / sliced_threads=0 / nr=0 / decimate=0 / interlaced=0 / bluray_compat=0 / constrained_intra=0 / bframes=8 / b_pyramid=2 / b_adapt=2 / b_bias=0 / direct=3 / weightb=1 / open_gop=0 / weightp=2 / keyint=250 / keyint_min=25 / scenecut=40 / intra_refresh=0 / rc=2pass / mbtree=0 / bitrate=1890 / ratetol=1.0 / qcomp=0.60 / qpmin=0 / qpmax=69 / qpstep=4 / cplxblur=20.0 / qblur=0.5 / ip_ratio=1.40 / pb_ratio=1.30 / aq=1:1.00
Язык : Russian
Default : Да
Forced : Нет

Аудио #1
Идентификатор : 2
Формат : AC-3
Формат/Информация : Audio Coding 3
Идентификатор кодека : A_AC3
Продолжительность : 1 ч. 31 м.
Вид битрейта : Постоянный
Битрейт : 192 Кбит/сек
Каналы : 2 канала
Расположение каналов : Front: L R
Частота : 48,0 КГц
Частота кадров : 31,250 кадров/сек (1536 SPF)
Битовая глубина : 16 бит
Метод сжатия : С потерями
Размер потока : 126 Мбайт (8%)
Заголовок : Dolby Digital
Язык : Russian
Default : Да
Forced : Нет

Аудио #2
Идентификатор : 3
Формат : AC-3
Формат/Информация : Audio Coding 3
Идентификатор кодека : A_AC3
Продолжительность : 1 ч. 31 м.
Вид битрейта : Постоянный
Битрейт : 192 Кбит/сек
Каналы : 2 канала
Расположение каналов : Front: L R
Частота : 48,0 КГц
Частота кадров : 31,250 кадров/сек (1536 SPF)
Битовая глубина : 16 бит
Метод сжатия : С потерями
Размер потока : 126 Мбайт (8%)
Заголовок : Dolby Digital
Язык : German
Default : Нет
Forced : Нет

Меню
00:00:00.000 : ru:Глава 01 / ru:Глава 01
00:05:00.000 : ru:Глава 02 / ru:Глава 02
00:10:00.000 : ru:Глава 03 / ru:Глава 03
00:15:00.000 : ru:Глава 04 / ru:Глава 04
00:20:00.000 : ru:Глава 05 / ru:Глава 05
00:25:00.000 : ru:Глава 06 / ru:Глава 06
00:30:00.000 : ru:Глава 07 / ru:Глава 07
00:35:00.000 : ru:Глава 08 / ru:Глава 08
00:40:00.000 : ru:Глава 09 / ru:Глава 09
00:45:00.000 : ru:Глава 10 / ru:Глава 10
00:50:00.000 : ru:Глава 11 / ru:Глава 11
00:55:00.000 : ru:Глава 12 / ru:Глава 12
01:00:00.000 : ru:Глава 13 / ru:Глава 13
01:05:00.000 : ru:Глава 14 / ru:Глава 14
01:10:00.000 : ru:Глава 15 / ru:Глава 15
01:15:00.000 : ru:Глава 16 / ru:Глава 16
01:20:00.000 : ru:Глава 17 / ru:Глава 17
01:25:00.000 : ru:Глава 18 / ru:Глава 18
01:30:00.000 : ru:Глава 19 / ru:Глава 19



Скачать Первый.день.мира.(Яков.Сегель).[1959.военный.драма.SATRip-AVC].torrent без регистрации
Золото ЗОЛОТАЯ РАЗДАЧА! СКАЧАННОЕ НЕ ЗАСЧИТЫВАЕТСЯ! Золото
Дата: Зарегистрирован   [ Тип: внешний ] Как тут cкачать?
MAGNET ссылка
MAGNET ссылка


Скачать .torrent

16 KB

Статус: проверено DHT
Скачан: торрент - 9 раз, раздача полностью - 0 раз
Размер: 1,46 GB
Оценка:  - (Голосов: 0)
Поблагодарили: 0
Поделиться ссылкой на эту раздачу с друзьями:
В контактеFacebookОдноклассникиTwitterLivejournalМой МирLiveinternet
 

 
Показать сообщения:    


Вы не можете начинать темы
Вы не можете отвечать на сообщения
Вы не можете редактировать свои сообщения
Вы не можете удалять свои сообщения
Вы не можете голосовать в опросах
Вы не можете прикреплять файлы к сообщениям
Вы можете скачивать файлы