Loading...
Error

Скачать Преследование / Following (Кристофер Нолан) [1998, триллер, драма, криминал, детектив, BDRip] [720p] [AVO]+[DVO]+[MVO]+[Eng]+[Sub Rus, Eng]x2 торрент без регистрации

Статистика раздачи
Размер:  7,62 GB   |    Скачан:  16 раз
Сидов:  1  [  0 KB/s  ]  
 
 
 
Автор Сообщение

Marsianka

[] 

Преследование / Following

«You're Never Alone»

Русское название: Преследование
Оригинальное название: Following
Год выпуска: 1998
Жанр: триллер, драма, криминал, детектив
Выпущено: Великобритания
Режиссер: Кристофер Нолан
В ролях: Джереми Теобалд , Алекс Хоу , Люси Расселл , Джон Нолан , Дик Брэдселл , Джиллиан Эль , Дженнифер Энджел , Николас Карлотти , Даррен Орманди , Гай Гринуэй , Тассос Стивенс , Тристан Мартин
Перевод: Авторский (одноголосый) + Профессиональный (многоголосый, закадровый) украинский + Любительский (двухголосый, закадровый)
Сюжет фильма:
Молодой писатель в поисках материала встречает вора, который берёт его под своё крыло.

Качество: BDRip 720p
Формат: AVC (библиотека кодирования x.264)
Контейнер (Расширение): MKV
Видео: 958x720 (4:3), 23.976 fps, AVC, ~13.6 Mbps, 0.820 bits/pixel[Пиксели*Кадры]
Audio #1: Russian, 48.0 KHz, AC3, 6 ch, 640 Kbps - Авторский, Ю.Сербин
Audio #2: Russian, 48.0 KHz, AC3, 2 ch, 192 Kbps - Любительский (двухголосый закадровый)
Audio #3: Ukrainian, 48.0 KHz, AC3, 2 ch, 192 Kbps - Многоголосый закадровый
Audio #4: English, 48.0 KHz, AC3, 6 ch, 640 Kbps
Субтитры: русские (Full), английские (Full)
Навигация по главам(Чаптеры): есть
Продолжительность: 01:10:10

Автор рипа: Сообщество:

Format : Matroska
Format version : Version 2
File size : 7.43 GiB
Duration : 1h 10mn
Overall bit rate : 15.2 Mbps
Movie name : Presledovanie.(1998).BDRip.720p.[denis100]
Encoded date : UTC 2015-03-23 08:06:53
Writing application : mkvmerge v5.8.0 ('No Sleep / Pillow') built on Sep 2 2012 15:37:04
Writing library : libebml v1.2.3 + libmatroska v1.3.0

Video
ID : 1
Format : AVC
Format/Info : Advanced Video Codec
Format profile : High@L4.1
Format settings, CABAC : Yes
Format settings, ReFrames : 9 frames
Codec ID : V_MPEG4/ISO/AVC
Duration : 1h 10mn
Bit rate : 13.6 Mbps
Width : 958 pixels
Height : 720 pixels
Display aspect ratio : 4:3
Frame rate : 23.976 fps
Color space : YUV
Chroma subsampling : 4:2:0
Bit depth : 8 bits
Scan type : Progressive
Bits/(Pixel*Frame) : 0.821
Stream size : 6.65 GiB (90%)
Title : Presledovanie.(1998).BDRip.720p.[denis100]
Writing library : x264 core 146 r2538 121396c
Encoding settings : cabac=1 / ref=9 / deblock=1:-3:-3 / analyse=0x3:0x133 / me=umh / subme=11 / psy=1 / psy_rd=1.00:0.00 / mixed_ref=1 / me_range=64 / chroma_me=1 / trellis=2 / 8x8dct=1 / cqm=0 / deadzone=21,11 / fast_pskip=0 / chroma_qp_offset=-2 / threads=6 / lookahead_threads=1 / sliced_threads=0 / nr=0 / decimate=1 / interlaced=0 / bluray_compat=0 / constrained_intra=0 / bframes=12 / b_pyramid=2 / b_adapt=2 / b_bias=0 / direct=3 / weightb=1 / open_gop=0 / weightp=2 / keyint=240 / keyint_min=23 / scenecut=40 / intra_refresh=0 / rc=crf / mbtree=0 / crf=18.0 / qcomp=0.60 / qpmin=0 / qpmax=69 / qpstep=4 / ip_ratio=1.40 / pb_ratio=1.30 / aq=1:1.00
Language : English
Default : Yes
Forced : No

Audio #1
ID : 2
Format : AC-3
Format/Info : Audio Coding 3
Mode extension : CM (complete main)
Codec ID : A_AC3
Duration : 1h 10mn
Bit rate mode : Constant
Bit rate : 640 Kbps
Channel(s) : 6 channels
Channel positions : Front: L C R, Side: L R, LFE
Sampling rate : 48.0 KHz
Bit depth : 16 bits
Compression mode : Lossy
Stream size : 321 MiB (4%)
Title : Авторский, Ю.Сербин
Language : Russian
Default : Yes
Forced : No

Audio #2
ID : 3
Format : AC-3
Format/Info : Audio Coding 3
Mode extension : CM (complete main)
Codec ID : A_AC3
Duration : 1h 10mn
Bit rate mode : Constant
Bit rate : 640 Kbps
Channel(s) : 6 channels
Channel positions : Front: L C R, Side: L R, LFE
Sampling rate : 48.0 KHz
Bit depth : 16 bits
Compression mode : Lossy
Stream size : 321 MiB (4%)
Language : English
Default : No
Forced : No

Text #1
ID : 4
Format : UTF-8
Codec ID : S_TEXT/UTF8
Codec ID/Info : UTF-8 Plain Text
Title : Full
Language : Russian
Default : No
Forced : No

Text #2
ID : 5
Format : UTF-8
Codec ID : S_TEXT/UTF8
Codec ID/Info : UTF-8 Plain Text
Title : Full
Language : English
Default : No
Forced : No

Menu
00:00:00.000 : en:00:00:00.000
00:17:03.231 : en:00:17:03.231
00:21:38.714 : en:00:21:38.714
00:22:43.195 : en:00:22:43.195
00:25:17.516 : en:00:25:17.516
00:28:49.728 : en:00:28:49.728
00:29:46.785 : en:00:29:46.785
00:35:07.731 : en:00:35:07.731
00:38:04.282 : en:00:38:04.282
00:41:02.502 : en:00:41:02.502
00:49:04.942 : en:00:49:04.942
00:51:01.976 : en:00:51:01.976
00:59:27.522 : en:00:59:27.522

x264 [info]: frame I:584 Avg QP:17.74 size:124529
x264 [info]: frame P:14959 Avg QP:18.76 size: 93222
x264 [info]: frame B:85403 Avg QP:20.94 size: 68303



Скачать Преследование.Following.(Кристофер.Нолан).[1998.триллер.драма.криминал.детектив.BDRip].[720p].[AVO]+[DVO]+[MVO]+[Eng]+[Sub.Rus.Eng]x2.torrent без регистрации
Золото ЗОЛОТАЯ РАЗДАЧА! СКАЧАННОЕ НЕ ЗАСЧИТЫВАЕТСЯ! Золото
Дата: Зарегистрирован   [ Тип: внутренний ] Как тут cкачать?
MAGNET ссылка
MAGNET ссылка


Скачать .torrent

39 KB

Статус: проверено DHT
Скачан: торрент - 16 раз, раздача полностью - 5 раз
Размер: 7,62 GB
Оценка:  - (Голосов: 0)
Поблагодарили: 0
Поделиться ссылкой на эту раздачу с друзьями:
В контактеFacebookОдноклассникиTwitterLivejournalМой МирLiveinternet
 

 
Показать сообщения:    


Вы не можете начинать темы
Вы не можете отвечать на сообщения
Вы не можете редактировать свои сообщения
Вы не можете удалять свои сообщения
Вы не можете голосовать в опросах
Вы не можете прикреплять файлы к сообщениям
Вы можете скачивать файлы