Loading...
Error

Скачать Фантазм / Phantasm (Дон Коскарелли) [1979, ужасы, фантастика, фэнтези, BDRemux] [1080p] [MVO]+[AVO]x6+[Rus]+[Eng]x3+[Sub Rus, Eng]x2 торрент без регистрации

Статистика раздачи
Размер:  15,12 GB   |    Скачан:  16 раз
Сидов:  1  [  0 KB/s  ]  
 
 
 
Автор Сообщение

Marsianka

[] 

Информация о фильме
Название: Фантазм
Оригинальное название: Phantasm
Год выхода: 1979
Жанр: ужасы, фантастика, фэнтези
Режиссер: Дон Коскарелли
В ролях: А. Майкл Болдуин, Билл Торнбери, Рэджи Бэннистер, Кэти Лестер, Терри Калбус, Кеннет В. Джонс, Сьюзэн Харпер, Линн Истмэн, Дэвид Арнцен, Ральф Ричмонд, ...

О фильме:
Подросток Майк становится свидетелем таинственных событий на городском кладбище Монинсайд. Мрачный гробовщик — двухметровый Верзила — прямо из могил крадет свежие трупы и творит с ними в глубине похоронного бюро нечто ужасное. Родители Майка погибли, старший брат Джоди не верит ему — трудно принять всерьез рассказы мальчишки о злобных зомби-карликах и летающих сферах-убийцах. Но вскоре Джоди и его другу мороженщику Рэджи придется убедиться в том, как опасен Верзила и его твари…


Страна: США
Студия: New Breed Productions Inc.
Продолжительность: 01:29:10
Перевод: профессиональный (многоголосый закадровый), авторский (одноголосый закадровый).

Файл
Кодек: x264
Качество: BDRemux 1080p.
Видео: MPEG-4 AVC, 20 Мбит/с, 1920x1080, 23.976 fps

Аудио 1: AC-3, 6 ch, 448 Kbps - Русский (MVO, D2Lab)
Аудио 2: AC-3, 2 ch, 192 Kbps - Русский (AVO, А. Гаврилов)
Аудио 3: AC-3, 2 ch, 192 Kbps - Русский (AVO, В. Горчаков)
Аудио 4: AC-3, 2 ch, 192 Kbps - Русский (AVO, В. Дохалов)
Аудио 5: AC-3, 2 ch, 192 Kbps - Русский (AVO, Ю. Живов)
Аудио 6: AC-3, 2 ch, 192 Kbps - Русский (AVO, М. Ошурков)
Аудио 7: AC-3, 2 ch, 192 Kbps - Русский (AVO, Ю. Сербин)
Аудио 8: AC-3, 2 ch, 192 Kbps - Русский (Комментарии создателей фильма, D2Lab)
Аудио 9: DTS-HD MA, 6 ch, ~2337 kbps / 1509 kbps - Английский (Оригинал)
Аудио 10: AAC, 2 ch, 151 Kbps - Английский (Комментарии создателей фильма)
Субтитры: Русские, английские
General
Unique ID : 190768341711374620715670368840796572198 (0x8F84A56BADDC2898BC82651D2DF78A26)
Complete name : D:DownloadPhantasm.1979.BDRemux.1080p.nnm_video.mkv
Format : Matroska
Format version : Version 4 / Version 2
File size : 15.1 GiB
Duration : 1h 29mn
Overall bit rate mode : Variable
Overall bit rate : 24.3 Mbps
Encoded date : UTC 2017-04-29 17:09:47
Writing application : mkvmerge v11.0.0 ('Alive') 64bit
Writing library : libebml v1.3.4 + libmatroska v1.4.5
DURATION : 01:29:10.144000000
NUMBER_OF_FRAMES : 250788
NUMBER_OF_BYTES : 100789490
_STATISTICS_WRITING_APP : mkvmerge v11.0.0 ('Alive') 64bit
_STATISTICS_WRITING_DATE_UTC : 2017-04-29 17:09:47
_STATISTICS_TAGS : BPS DURATION NUMBER_OF_FRAMES NUMBER_OF_BYTES

Video
ID : 1
Format : AVC
Format/Info : Advanced Video Codec
Format profile : High@L4.1
Format settings, CABAC : Yes
Format settings, ReFrames : 4 frames
Codec ID : V_MPEG4/ISO/AVC
Duration : 1h 29mn
Bit rate mode : Variable
Maximum bit rate : 25.0 Mbps
Width : 1 920 pixels
Height : 1 080 pixels
Display aspect ratio : 16:9
Frame rate : 24.000 fps
Standard : NTSC
Color space : YUV
Chroma subsampling : 4:2:0
Bit depth : 8 bits
Scan type : Progressive
Language : English
Default : Yes
Forced : No
Color primaries : BT.709-5, BT.1361, IEC 61966-2-4, SMPTE RP177
Transfer characteristics : BT.709-5, BT.1361
Matrix coefficients : BT.709-5, BT.1361, IEC 61966-2-4 709, SMPTE RP177

Audio #1
ID : 2
Format : AC-3
Format/Info : Audio Coding 3
Mode extension : CM (complete main)
Codec ID : A_AC3
Duration : 1h 29mn
Bit rate mode : Constant
Bit rate : 448 Kbps
Channel(s) : 6 channels
Channel positions : Front: L C R, Side: L R, LFE
Sampling rate : 48.0 KHz
Bit depth : 16 bits
Compression mode : Lossy
Stream size : 286 MiB (2%)
Title : MVO (D2Lab)
Language : Russian
Default : Yes
Forced : No

Audio #2
ID : 3
Format : AC-3
Format/Info : Audio Coding 3
Mode extension : CM (complete main)
Codec ID : A_AC3
Duration : 1h 29mn
Bit rate mode : Constant
Bit rate : 192 Kbps
Channel(s) : 2 channels
Channel positions : Front: L R
Sampling rate : 48.0 KHz
Bit depth : 16 bits
Compression mode : Lossy
Stream size : 122 MiB (1%)
Title : AVO (А. Гаврилов)
Language : Russian
Default : No
Forced : No

Audio #3
ID : 4
Format : AC-3
Format/Info : Audio Coding 3
Mode extension : CM (complete main)
Codec ID : A_AC3
Duration : 1h 29mn
Bit rate mode : Constant
Bit rate : 192 Kbps
Channel(s) : 2 channels
Channel positions : Front: L R
Sampling rate : 48.0 KHz
Bit depth : 16 bits
Compression mode : Lossy
Stream size : 122 MiB (1%)
Title : AVO (В. Горчаков)
Language : Russian
Default : No
Forced : No

Audio #4
ID : 5
Format : AC-3
Format/Info : Audio Coding 3
Mode extension : CM (complete main)
Codec ID : A_AC3
Duration : 1h 29mn
Bit rate mode : Constant
Bit rate : 192 Kbps
Channel(s) : 2 channels
Channel positions : Front: L R
Sampling rate : 48.0 KHz
Bit depth : 16 bits
Compression mode : Lossy
Stream size : 122 MiB (1%)
Title : AVO (В. Дохалов)
Language : Russian
Default : No
Forced : No

Audio #5
ID : 6
Format : AC-3
Format/Info : Audio Coding 3
Mode extension : CM (complete main)
Codec ID : A_AC3
Duration : 1h 29mn
Bit rate mode : Constant
Bit rate : 192 Kbps
Channel(s) : 2 channels
Channel positions : Front: L R
Sampling rate : 48.0 KHz
Bit depth : 16 bits
Compression mode : Lossy
Stream size : 122 MiB (1%)
Title : AVO (Ю. Живов)
Language : Russian
Default : No
Forced : No

Audio #6
ID : 7
Format : AC-3
Format/Info : Audio Coding 3
Mode extension : CM (complete main)
Codec ID : A_AC3
Duration : 1h 29mn
Bit rate mode : Constant
Bit rate : 192 Kbps
Channel(s) : 2 channels
Channel positions : Front: L R
Sampling rate : 48.0 KHz
Bit depth : 16 bits
Compression mode : Lossy
Stream size : 122 MiB (1%)
Title : AVO (М. Ошурков)
Language : Russian
Default : No
Forced : No

Audio #7
ID : 8
Format : AC-3
Format/Info : Audio Coding 3
Mode extension : CM (complete main)
Codec ID : A_AC3
Duration : 1h 29mn
Bit rate mode : Constant
Bit rate : 192 Kbps
Channel(s) : 2 channels
Channel positions : Front: L R
Sampling rate : 48.0 KHz
Bit depth : 16 bits
Compression mode : Lossy
Stream size : 122 MiB (1%)
Title : AVO (Ю. Сербин)
Language : Russian
Default : No
Forced : No

Audio #8
ID : 9
Format : AC-3
Format/Info : Audio Coding 3
Mode extension : CM (complete main)
Codec ID : A_AC3
Duration : 1h 29mn
Bit rate mode : Constant
Bit rate : 192 Kbps
Channel(s) : 2 channels
Channel positions : Front: L R
Sampling rate : 48.0 KHz
Bit depth : 16 bits
Compression mode : Lossy
Stream size : 122 MiB (1%)
Title : Комментарии создателей (D2Lab)
Language : Russian
Default : No
Forced : No

Audio #9
ID : 10
Format : DTS
Format/Info : Digital Theater Systems
Format profile : MA / Core
Codec ID : A_DTS
Duration : 1h 29mn
Bit rate mode : Variable
Bit rate : 2 230 Kbps / 1 510 Kbps
Channel(s) : 6 channels
Channel positions : Front: L C R, Side: L R, LFE
Sampling rate : 48.0 KHz
Bit depth : 16 bits
Compression mode : Lossless / Lossy
Language : English
Default : No
Forced : No

Audio #10
ID : 11
Format : AAC
Format/Info : Advanced Audio Codec
Format profile : LC
Codec ID : A_AAC
Duration : 1h 29mn
Channel(s) : 2 channels
Channel positions : Front: L R
Sampling rate : 48.0 KHz
Compression mode : Lossy
Delay relative to video : 9ms
Title : Commentary
Language : English
Default : No
Forced : No

Text #1
ID : 12
Format : UTF-8
Codec ID : S_TEXT/UTF8
Codec ID/Info : UTF-8 Plain Text
Language : Russian
Default : Yes
Forced : No

Text #2
ID : 13
Format : UTF-8
Codec ID : S_TEXT/UTF8
Codec ID/Info : UTF-8 Plain Text
Language : English
Default : No
Forced : No

Menu
00:00:00.000 : en:00:00:00.000
00:08:47.792 : en:00:08:47.792
00:15:49.708 : en:00:15:49.708
00:25:43.000 : en:00:25:43.000
00:33:47.500 : en:00:33:47.500
00:40:32.458 : en:00:40:32.458
00:52:43.125 : en:00:52:43.125
01:06:53.375 : en:01:06:53.375
01:13:47.750 : en:01:13:47.750
01:26:40.875 : en:01:26:40.875



Скачать Фантазм.Phantasm.(Дон.Коскарелли).[1979.ужасы.фантастика.фэнтези.BDRemux].[1080p].[MVO]+[AVO]x6+[Rus]+[Eng]x3+[Sub.Rus.Eng]x2.torrent без регистрации
Золото ЗОЛОТАЯ РАЗДАЧА! СКАЧАННОЕ НЕ ЗАСЧИТЫВАЕТСЯ! Золото
Дата: Зарегистрирован   [ Тип: внутренний ] Как тут cкачать?
MAGNET ссылка
MAGNET ссылка


Скачать .torrent

77 KB

Статус: проверено DHT
Скачан: торрент - 16 раз, раздача полностью - 1 раз
Размер: 15,12 GB
Оценка:  - (Голосов: 0)
Поблагодарили: 0
Поделиться ссылкой на эту раздачу с друзьями:
В контактеFacebookОдноклассникиTwitterLivejournalМой МирLiveinternet
 

 
Показать сообщения:    


Вы не можете начинать темы
Вы не можете отвечать на сообщения
Вы не можете редактировать свои сообщения
Вы не можете удалять свои сообщения
Вы не можете голосовать в опросах
Вы не можете прикреплять файлы к сообщениям
Вы можете скачивать файлы