Loading...
Error

Скачать Воздушная тюрьма / Con Air (Саймон Уэст) [1997, боевик, триллер, криминал, BDRip] [720p] [Dub]+[MVO]x2+[DVO]+[AVO]x3+[Оригинал Eng]+[Sub]x3 торрент без регистрации

Статистика раздачи
Размер:  9,65 GB   |    Скачан:  12 раз

Полного источника не было: 19 минут

 
 
 
Автор Сообщение

Marsianka

[] 

Воздушная тюрьма / Con Air

Страна: США
Жанр: боевик, триллер, криминал
Год выпуска: 1997
Продолжительность: 01:55:26

Режиссер: Саймон Уэст / Simon West

В ролях: Николас Кейдж, Джон Кьюсак, Джон Малкович, Винг Рэймс, Ник Чинланд, Стив Бушеми, Колм Мини, Рэйчел Тикотин, Дэвид Чаппелль, Майкелти Уильямсон, Дэнни Трехо, М.С. Гейни, Стив Истен, Реноли Сантьяго, Моника Поттер, Ландри Олбрайт, Брендан Келли, Jesse Borrego, Карл Киарфалио, Соо Браунли, Хосе Зунига

Описание:
«Воздушная тюрьма» - транспортное подразделение полиции США, перевозящее особо опасных преступников. Одним из этих рейсов возвращается домой Кэмерон По, освобожденный из тюрьмы после 8 лет заключения. Он так долго ждал этого и ничто не должно остановить его на пути домой.

Внезапно Кэмерон оказывается свидетелем захвата самолета, организованного опаснейшим рецидивистом Сайрусом «Вирусом» Гриссомом. Он решает взять ситуацию в свои руки и помочь полиции, ведь для него это - единственный шанс попасть домой. Только один человек на земле готов поверить ему - шериф Винс Ларкин, который вынужден преодолевать невероятные трудности, чтобы предотвратить бегство преступников и не позволить своим ретивым начальникам взорвать самолет вместе со всеми пассажирами.



Тип релиза: BDRip 720p
Контейнер: MKV

Видео: 1280x546 (2.35:1), 23.976 fps, AVC, ~6000 Kbps, 0.358 bits/pixel

Сэмпл
Перевод: Профессиональный (дублированный) - (CEE)
Перевод 2: Профессиональный (многоголосый закадровый) - ОРТ
Перевод 3: Профессиональный (многоголосый закадровый) - НТВ
Перевод 4: Профессиональный (двухголосый закадровый) - (П.Гланц и И.Королёва)
Перевод 5: Авторский (одноголосый закадровый) - (Юрий Живов)
Перевод 6: Авторский (одноголосый закадровый) - (Андрей Гаврилов)
Перевод 7: Авторский (одноголосый закадровый) - (Диктор CDV)
Субтитры: русские украинские, английские
Оригинальная аудиодорожка: английский
Аудио: Russian, 48.0 KHz, AC3, 2 ch, 192 Kbps - Дублированный (CEE)
Аудио 2: Russian, 48.0 KHz, AC3, 6 ch, 448 Kbps - Многоголосый ОРТ
Аудио 3:: Russian, 48.0 KHz, AC3, 6 ch, 448 Kbps - Многоголосый НТВ
Аудио 4: Russian, 48.0 KHz, DTS, 6 ch, 755 Kbps - Двухголосый (П.Гланц и И.Королёва)
Аудио 5: Russian, 48.0 KHz, DTS, 6 ch, 1510 Kbps - Авторский Юрий Живов
Аудио 6: Russian, 48.0 KHz, AC3, 6 ch, 448 Kbps - Авторский Андрей Гаврилов
Аудио 7:Russian, 48.0 KHz, AC3, 6 ch, 448 Kbps - Авторский CDV
Аудио 8: Ukrainian, 48.0 KHz, AC3, 2 ch, 192 Kbps - Многоголосый 1+1
Аудио 9: English, 48.0 KHz, DTS, 6 ch, 1510 Kbps
Формат субтитров: softsub (SRT)

Общее
Уникальный идентификатор : 232278957171035174996494137740010976136 (0xAEBF4CC6AF0B5B38A3608C55DC47F388)
Полное имя : D:Con Air.1997.x264.BDRip.720p.7xRus.Ukr.Eng.mkv
Формат : Matroska
Версия формата : Version 4 / Version 2
Размер файла : 9,65 Гбайт
Продолжительность : 1 ч. 55 м.
Общий поток : 12,0 Мбит/сек
Название фильма : Воздушная тюрьма / Con Air b1997B BDRip (720p) by 0ptimus
Дата кодирования : UTC 2018-02-11 08:34:10
Программа кодирования : mkvmerge v7.9.0 ('Birds') 64bit
Библиотека кодирования : libebml v1.3.1 + libmatroska v1.4.2

Видео
Идентификатор : 1
Формат : AVC
Формат/Информация : Advanced Video Codec
Профиль формата : High@L4.1
Параметр CABAC формата : Да
Параметр RefFrames формата : 11 кадров
Идентификатор кодека : V_MPEG4/ISO/AVC
Продолжительность : 1 ч. 55 м.
Битрейт : 6000 Кбит/сек
Ширина : 1280 пикселей
Высота : 546 пикселей
Соотношение сторон : 2,35:1
Режим частоты кадров : Постоянный
Частота кадров : 23,976 (24000/1001) кадра/сек
Цветовое пространство : YUV
Субдискретизация насыщенности : 4:2:0
Битовая глубина : 8 бит
Тип развёртки : Прогрессивная
Бит/(Пиксели*Кадры) : 0.358
Размер потока : 4,84 Гбайт (50%)
Заголовок : EbP
Библиотека кодирования : x264 core 114 r1924 08d04a4
Настройки программы : cabac=1 / ref=11 / deblock=1:-3:-3 / analyse=0x3:0x133 / me=umh / subme=9 / psy=1 / psy_rd=0.90:0.00 / mixed_ref=1 / me_range=32 / chroma_me=1 / trellis=2 / 8x8dct=1 / cqm=0 / deadzone=21,11 / fast_pskip=0 / chroma_qp_offset=-2 / threads=6 / sliced_threads=0 / nr=0 / decimate=1 / interlaced=0 / constrained_intra=0 / bframes=7 / b_pyramid=2 / b_adapt=2 / b_bias=0 / direct=3 / weightb=1 / open_gop=0 / weightp=2 / keyint=250 / keyint_min=23 / scenecut=40 / intra_refresh=0 / rc=2pass / mbtree=0 / bitrate=6000 / ratetol=1.0 / qcomp=0.60 / qpmin=0 / qpmax=69 / qpstep=4 / cplxblur=20.0 / qblur=0.5 / ip_ratio=1.40 / pb_ratio=1.30 / aq=1:0.60
Язык : English
Default : Да
Forced : Нет

Аудио #1
Идентификатор : 2
Формат : AC-3
Формат/Информация : Audio Coding 3
Параметр Endianness формата : Big
Идентификатор кодека : A_AC3
Продолжительность : 1 ч. 55 м.
Вид битрейта : Постоянный
Битрейт : 192 Кбит/сек
Каналы : 2 канала
Расположение каналов : Front: L R
Частота : 48,0 КГц
Частота кадров : 31,250 кадров/сек (1536 SPF)
Битовая глубина : 16 бит
Метод сжатия : С потерями
Размер потока : 159 Мбайт (2%)
Заголовок : Дублированный (CEE)
Язык : Russian
ServiceKind/String : Complete Main
Default : Да
Forced : Нет

Аудио #2
Идентификатор : 3
Формат : AC-3
Формат/Информация : Audio Coding 3
Параметр Endianness формата : Big
Идентификатор кодека : A_AC3
Продолжительность : 1 ч. 55 м.
Вид битрейта : Постоянный
Битрейт : 448 Кбит/сек
Каналы : 6 каналов
Расположение каналов : Front: L C R, Side: L R, LFE
Частота : 48,0 КГц
Частота кадров : 31,250 кадров/сек (1536 SPF)
Битовая глубина : 16 бит
Метод сжатия : С потерями
Размер потока : 370 Мбайт (4%)
Заголовок : Многоголосый ОРТ
Язык : Russian
ServiceKind/String : Complete Main
Default : Нет
Forced : Нет

Аудио #3
Идентификатор : 4
Формат : AC-3
Формат/Информация : Audio Coding 3
Параметр Endianness формата : Big
Идентификатор кодека : A_AC3
Продолжительность : 1 ч. 55 м.
Вид битрейта : Постоянный
Битрейт : 448 Кбит/сек
Каналы : 6 каналов
Расположение каналов : Front: L C R, Side: L R, LFE
Частота : 48,0 КГц
Частота кадров : 31,250 кадров/сек (1536 SPF)
Битовая глубина : 16 бит
Метод сжатия : С потерями
Размер потока : 370 Мбайт (4%)
Заголовок : Многоголосый НТВ
Язык : Russian
ServiceKind/String : Complete Main
Default : Нет
Forced : Нет

Аудио #4
Идентификатор : 5
Формат : DTS
Формат/Информация : Digital Theater Systems
Режим : 16
Параметр Endianness формата : Big
Идентификатор кодека : A_DTS
Продолжительность : 1 ч. 55 м.
Вид битрейта : Постоянный
Битрейт : 768 Кбит/сек
Каналы : 6 каналов
Расположение каналов : Front: L C R, Side: L R, LFE
Частота : 48,0 КГц
Частота кадров : 93,750 кадра/сек (512 SPF)
Битовая глубина : 16 бит
Метод сжатия : С потерями
Размер потока : 634 Мбайт (6%)
Заголовок : Двухголосый (П.Гланц и И.Королёва)
Язык : Russian
Default : Нет
Forced : Нет

Аудио #5
Идентификатор : 6
Формат : DTS
Формат/Информация : Digital Theater Systems
Режим : 16
Параметр Endianness формата : Big
Идентификатор кодека : A_DTS
Продолжительность : 1 ч. 55 м.
Вид битрейта : Постоянный
Битрейт : 1509 Кбит/сек
Каналы : 6 каналов
Расположение каналов : Front: L C R, Side: L R, LFE
Частота : 48,0 КГц
Частота кадров : 93,750 кадра/сек (512 SPF)
Битовая глубина : 16 бит
Метод сжатия : С потерями
Размер потока : 1,22 Гбайт (13%)
Заголовок : Авторский Юрий Живов
Язык : Russian
Default : Нет
Forced : Нет

Аудио #6
Идентификатор : 7
Формат : AC-3
Формат/Информация : Audio Coding 3
Параметр Endianness формата : Big
Идентификатор кодека : A_AC3
Продолжительность : 1 ч. 55 м.
Вид битрейта : Постоянный
Битрейт : 448 Кбит/сек
Каналы : 6 каналов
Расположение каналов : Front: L C R, Side: L R, LFE
Частота : 48,0 КГц
Частота кадров : 31,250 кадров/сек (1536 SPF)
Битовая глубина : 16 бит
Метод сжатия : С потерями
Размер потока : 370 Мбайт (4%)
Заголовок : Авторский Андрей Гаврилов
Язык : Russian
ServiceKind/String : Complete Main
Default : Нет
Forced : Нет

Аудио #7
Идентификатор : 8
Формат : AC-3
Формат/Информация : Audio Coding 3
Параметр Endianness формата : Big
Идентификатор кодека : A_AC3
Продолжительность : 1 ч. 55 м.
Вид битрейта : Постоянный
Битрейт : 448 Кбит/сек
Каналы : 6 каналов
Расположение каналов : Front: L C R, Side: L R, LFE
Частота : 48,0 КГц
Частота кадров : 31,250 кадров/сек (1536 SPF)
Битовая глубина : 16 бит
Метод сжатия : С потерями
Размер потока : 370 Мбайт (4%)
Заголовок : Авторский CDV
Язык : Russian
ServiceKind/String : Complete Main
Default : Нет
Forced : Нет

Аудио #8
Идентификатор : 9
Формат : AC-3
Формат/Информация : Audio Coding 3
Параметр Endianness формата : Big
Идентификатор кодека : A_AC3
Продолжительность : 1 ч. 55 м.
Вид битрейта : Постоянный
Битрейт : 192 Кбит/сек
Каналы : 2 канала
Расположение каналов : Front: L R
Частота : 48,0 КГц
Частота кадров : 31,250 кадров/сек (1536 SPF)
Битовая глубина : 16 бит
Метод сжатия : С потерями
Размер потока : 159 Мбайт (2%)
Заголовок : Многоголосый 1+1
Язык : Ukrainian
ServiceKind/String : Complete Main
Default : Нет
Forced : Нет

Аудио #9
Идентификатор : 10
Формат : DTS
Формат/Информация : Digital Theater Systems
Режим : 16
Параметр Endianness формата : Big
Идентификатор кодека : A_DTS
Продолжительность : 1 ч. 55 м.
Вид битрейта : Постоянный
Битрейт : 1510 Кбит/сек
Каналы : 6 каналов
Расположение каналов : Front: L C R, Side: L R, LFE
Частота : 48,0 КГц
Частота кадров : 93,750 кадра/сек (512 SPF)
Битовая глубина : 24 бит
Метод сжатия : С потерями
Размер потока : 1,22 Гбайт (13%)
Язык : English
Default : Нет
Forced : Нет

Текст #1
Идентификатор : 11
Формат : UTF-8
Идентификатор кодека : S_TEXT/UTF8
Идентификатор кодека/Информация : UTF-8 Plain Text
Продолжительность : 1 ч. 54 м.
Битрейт : 72 бит/сек
ElementCount : 1167
Размер потока : 60,9 Кбайт (0%)
Язык : Russian
Default : Нет
Forced : Нет

Текст #2
Идентификатор : 12
Формат : UTF-8
Идентификатор кодека : S_TEXT/UTF8
Идентификатор кодека/Информация : UTF-8 Plain Text
Продолжительность : 1 ч. 47 м.
Битрейт : 92 бит/сек
ElementCount : 1171
Размер потока : 72,8 Кбайт (0%)
Язык : Ukrainian
Default : Нет
Forced : Нет

Текст #3
Идентификатор : 13
Формат : UTF-8
Идентификатор кодека : S_TEXT/UTF8
Идентификатор кодека/Информация : UTF-8 Plain Text
Продолжительность : 1 ч. 48 м.
Битрейт : 61 бит/сек
ElementCount : 1192
Размер потока : 48,6 Кбайт (0%)
Язык : English
Default : Да
Forced : Нет

Меню
00:00:00.000 : :Program Start
00:10:03.394 : :Going Home
00:28:25.912 : :Fire on Board
00:42:52.528 : :Everybody Freeze!
00:57:22.981 : :Discovering the Plan
01:09:02.596 : :Let's Go!
01:22:53.301 : :Sizing Up Poe
01:34:51.143 : :Personal Stuff
01:40:36.572 : :Put the Bunny Back
01:48:10.525 : :Lerner Field
01:55:26.169 : :Poe Intervenes



Скачать Воздушная.тюрьма.Con.Air.(Саймон.Уэст).[1997.боевик.триллер.криминал.BDRip].[720p].[Dub]+[MVO]x2+[DVO]+[AVO]x3+[Оригинал.Eng]+[Sub]x3.torrent без регистрации
Золото ЗОЛОТАЯ РАЗДАЧА! СКАЧАННОЕ НЕ ЗАСЧИТЫВАЕТСЯ! Золото
Дата: Зарегистрирован   [ Тип: внутренний ] Как тут cкачать?
MAGNET ссылка
MAGNET ссылка


Скачать .torrent

49 KB

Статус: проверено DHT
Скачан: торрент - 12 раз, раздача полностью - 0 раз
Размер: 9,65 GB
Оценка:  - (Голосов: 0)
Поблагодарили: 0
Поделиться ссылкой на эту раздачу с друзьями:
В контактеFacebookОдноклассникиTwitterLivejournalМой МирLiveinternet
 

 
Показать сообщения:    


Вы не можете начинать темы
Вы не можете отвечать на сообщения
Вы не можете редактировать свои сообщения
Вы не можете удалять свои сообщения
Вы не можете голосовать в опросах
Вы не можете прикреплять файлы к сообщениям
Вы можете скачивать файлы